<?xml version="1.0" standalone="no"?>
<!DOCTYPE svg PUBLIC "-//W3C//DTD SVG 1.1//EN" "http://www.w3.org/Graphics/SVG/1.1/DTD/svg11.dtd" >
<svg xmlns="http://www.w3.org/2000/svg" xmlns:xlink="http://www.w3.org/1999/xlink" version="1.1">
<metadata>
Created by FontForge 20170731 at Tue Dec  9 19:46:54 2003
 By Aleksey,,,
Copyright 1990-2003 Bitstream Inc. All rights reserved.
</metadata>
<defs>
<font id="FuturaBT-BookItalic" horiz-adv-x="1024" >
  <font-face 
    font-family="Futura Bk BT"
    font-weight="400"
    font-style="italic"
    font-stretch="normal"
    units-per-em="2048"
    panose-1="2 11 5 2 2 2 4 9 3 3"
    ascent="1556"
    descent="-492"
    x-height="915"
    cap-height="1464"
    bbox="-342 -483 2286 1972"
    underline-thickness="119"
    underline-position="-400"
    unicode-range="U+0020-F002"
  />
<missing-glyph horiz-adv-x="1229" 
d="M102 -362v1806h1024v-1806h-1024zM217 -248h795v1577h-795v-1577z" />
    <glyph glyph-name=".notdef" horiz-adv-x="1229" 
d="M102 -362v1806h1024v-1806h-1024zM217 -248h795v1577h-795v-1577z" />
    <glyph glyph-name=".null" horiz-adv-x="0" 
 />
    <glyph glyph-name="nonmarkingreturn" horiz-adv-x="590" 
 />
    <glyph glyph-name="space" unicode=" " horiz-adv-x="590" 
 />
    <glyph glyph-name="exclam" unicode="!" horiz-adv-x="631" 
d="M125 76q0 47 33.5 80.5t81.5 33.5q47 0 79.5 -33t32.5 -81q0 -49 -32 -82t-80 -33q-49 0 -82 33.5t-33 81.5zM182 354l152 1143h168l-154 -1143h-166z" />
    <glyph glyph-name="quotedbl" unicode="&#x22;" horiz-adv-x="590" 
d="M496 1434v-553h-119v553h119zM211 1434v-553h-117v553h117z" />
    <glyph glyph-name="numbersign" unicode="#" horiz-adv-x="1575" 
d="M973 862h-264l-95 -272h263zM922 1456l-166 -471h260l168 471h143l-164 -471h307l-43 -123h-311l-94 -272h330l-43 -123h-332l-166 -469h-145l168 469h-265l-168 -469h-143l166 469h-320l43 123h320l96 272h-342l43 123h344l168 471h146z" />
    <glyph glyph-name="dollar" unicode="$" horiz-adv-x="1180" 
d="M57 264l129 107q58 -129 123.5 -189.5t151.5 -64.5l71 555q-157 77 -231 171t-74 216q0 180 112.5 296t301.5 128l23 172h92l-25 -176q97 -11 177.5 -65.5t146.5 -153.5l-129 -109q-44 82 -97 125t-118 49l-68 -510q173 -79 247.5 -175.5t74.5 -240.5q0 -192 -117.5 -311
t-317.5 -127l-22 -184h-92l26 188q-133 10 -230.5 85.5t-154.5 213.5zM618 627l-65 -510q109 15 171 89t62 189q0 79 -39.5 133.5t-128.5 98.5zM559 860l62 467q-97 -12 -155 -78t-58 -164q0 -75 35 -127.5t116 -97.5z" />
    <glyph glyph-name="percent" unicode="%" horiz-adv-x="1473" 
d="M944 233q0 -93 30.5 -137.5t94.5 -44.5q93 0 148 107.5t55 292.5q0 91 -30.5 134.5t-94.5 43.5q-90 0 -146.5 -109t-56.5 -287zM1145 723q127 0 193.5 -80t66.5 -235q0 -194 -93 -323.5t-225 -129.5q-137 0 -204.5 78t-67.5 235q0 200 93.5 327.5t236.5 127.5zM207 993
q0 -94 29.5 -138t93.5 -44q92 0 147 108t55 293q0 92 -29.5 134.5t-92.5 42.5q-90 0 -146.5 -109.5t-56.5 -286.5zM406 1483q128 0 194 -79.5t66 -234.5q0 -193 -93 -322.5t-225 -129.5q-138 0 -205 77t-67 234q0 200 93.5 327.5t236.5 127.5zM270 -39l824 1518h100
l-823 -1518h-101z" />
    <glyph glyph-name="ampersand" unicode="&#x26;" horiz-adv-x="1280" 
d="M578 924l55 41q88 66 120.5 110t32.5 92q0 60 -37.5 96.5t-99.5 36.5q-71 0 -115.5 -44t-44.5 -115q0 -36 10.5 -71t30.5 -69zM782 311l-262 408l-92 -64q-105 -71 -157 -147t-52 -160q0 -98 65.5 -164.5t161.5 -66.5q59 0 119.5 27t118.5 79zM1001 2l-131 182l-82 -71
q-82 -72 -172 -108t-188 -36q-167 0 -271 105t-104 272q0 136 81 246.5t253 210.5l59 35q-56 84 -84 162.5t-28 148.5q0 129 90 214t229 85q136 0 217.5 -78t81.5 -207q0 -94 -62 -172.5t-241 -193.5l246 -379q49 44 95 100t87 123l105 -125q-57 -72 -105.5 -126.5
t-97.5 -100.5l213 -287h-191z" />
    <glyph glyph-name="quotesingle" unicode="'" horiz-adv-x="305" 
d="M211 1434v-553h-117v553h117z" />
    <glyph glyph-name="parenleft" unicode="(" horiz-adv-x="651" 
d="M567 1520l99 -74q-184 -215 -281.5 -499.5t-97.5 -606.5q0 -206 39 -383.5t118 -335.5l-102 -55q-94 195 -141 389t-47 389q0 352 100 636t313 540z" />
    <glyph glyph-name="parenright" unicode=")" horiz-adv-x="651" 
d="M37 -434l-98 74q184 215 281 499.5t97 605.5q0 207 -39 385.5t-118 335.5l102 54q95 -195 142 -389.5t47 -389.5q0 -352 -100.5 -635.5t-313.5 -539.5z" />
    <glyph glyph-name="asterisk" unicode="*" horiz-adv-x="877" 
d="M201 944l-47 111l268 82l-240 143l70 94l207 -192l4 282l119 -14l-62 -276l244 139l45 -111l-268 -82l239 -145l-69 -94l-207 194v-284l-125 16l65 274z" />
    <glyph glyph-name="plus" unicode="+" horiz-adv-x="1706" 
d="M913 1221v-551h539v-117h-539v-553h-118v553h-541v117h541v551h118z" />
    <glyph glyph-name="comma" unicode="," horiz-adv-x="590" 
d="M-49 -213l262 489l147 -92l-309 -460z" />
    <glyph glyph-name="hyphen" unicode="-" horiz-adv-x="674" 
d="M76 532h471l-21 -155h-469z" />
    <glyph glyph-name="period" unicode="." horiz-adv-x="590" 
d="M94 94q0 48 33.5 81.5t81.5 33.5t81.5 -33.5t33.5 -81.5t-33 -80t-82 -32t-82 32t-33 80z" />
    <glyph glyph-name="slash" unicode="/" horiz-adv-x="915" 
d="M0 -190l778 1687h137l-778 -1687h-137z" />
    <glyph glyph-name="zero" unicode="0" horiz-adv-x="1180" 
d="M1100 899q0 -205 -46.5 -386.5t-131.5 -311.5q-79 -119 -183 -179.5t-229 -60.5q-205 0 -316.5 150t-111.5 428q0 208 45.5 388.5t130.5 311.5q76 119 179.5 179.5t230.5 60.5q208 0 320 -150.5t112 -429.5zM670 1331q-83 0 -151.5 -44.5t-119.5 -131.5
q-69 -119 -109 -289t-40 -348q0 -202 67 -305.5t197 -103.5q181 0 297.5 224t116.5 582q0 215 -63 315.5t-195 100.5z" />
    <glyph glyph-name="one" unicode="1" horiz-adv-x="1180" 
d="M461 0l170 1292h-281l64 158h415l-192 -1450h-176z" />
    <glyph glyph-name="two" unicode="2" horiz-adv-x="1180" 
d="M985 0h-987l342 338q159 157 240.5 239.5t113.5 116.5q131 142 172 224.5t41 173.5q0 106 -73 172.5t-191 66.5q-148 0 -227.5 -80.5t-89.5 -240.5h-174q10 222 139.5 345.5t351.5 123.5q205 0 322.5 -103.5t117.5 -281.5q0 -133 -70 -257.5t-272 -322.5l-364 -358h633z
" />
    <glyph glyph-name="three" unicode="3" horiz-adv-x="1180" 
d="M66 381h163q2 -130 76 -202.5t207 -72.5q149 0 234 84t85 230q0 122 -82 185t-241 63q-20 0 -30.5 -0.5t-20.5 -1.5l18 141h27q181 0 280 76t99 215q0 108 -63 170.5t-173 62.5q-112 0 -181.5 -61t-80.5 -170h-166q14 178 132.5 278.5t314.5 100.5q179 0 283 -96.5
t104 -262.5q0 -145 -82 -245.5t-226 -131.5q129 -29 196 -110t67 -207q0 -210 -138.5 -337.5t-367.5 -127.5q-207 0 -320.5 103.5t-113.5 291.5v25z" />
    <glyph glyph-name="four" unicode="4" horiz-adv-x="1180" 
d="M614 0l43 330h-667v28l899 1121h84l-131 -1006h176l-25 -143h-170l-45 -330h-164zM676 473l102 670l-524 -670h422z" />
    <glyph glyph-name="five" unicode="5" horiz-adv-x="1180" 
d="M31 158l114 112q76 -80 151 -117.5t159 -37.5q170 0 272 107.5t102 285.5q0 146 -90 231.5t-245 85.5q-78 0 -150.5 -18.5t-144.5 -56.5l-33 20l248 680h622l-22 -158h-496l-131 -362q53 12 98 18t84 6q197 0 316 -123t119 -327q0 -238 -151 -390.5t-386 -152.5
q-130 0 -238.5 49t-197.5 148z" />
    <glyph glyph-name="six" unicode="6" horiz-adv-x="1180" 
d="M397 803q63 35 124 52t122 17q176 0 281.5 -109.5t105.5 -291.5q0 -221 -146 -367.5t-366 -146.5q-198 0 -315 118t-117 318q0 148 76 301t248 346l403 455l119 -100zM592 737q-150 0 -247 -98t-97 -250q0 -130 73 -206.5t197 -76.5q148 0 245 102t97 259
q0 121 -74 195.5t-194 74.5z" />
    <glyph glyph-name="seven" unicode="7" horiz-adv-x="1180" 
d="M311 -47l-139 82l707 1263h-672l20 152h916z" />
    <glyph glyph-name="eight" unicode="8" horiz-adv-x="1180" 
d="M528 111q144 0 234 94.5t90 245.5q0 126 -72 198t-198 72q-145 0 -235.5 -94t-90.5 -244q0 -130 71.5 -201t200.5 -71zM604 862q128 0 200.5 72t72.5 199q0 90 -67.5 146t-176.5 56q-119 0 -190.5 -66.5t-71.5 -176.5q0 -105 63.5 -167.5t169.5 -62.5zM416 799
q-100 46 -151.5 120t-51.5 171q0 170 118 279.5t306 109.5t293.5 -92.5t105.5 -256.5q0 -135 -75.5 -226t-204.5 -111q124 -31 195 -126.5t71 -232.5q0 -205 -141 -339t-361 -134q-202 0 -319 112t-117 306q0 159 86.5 268t245.5 152z" />
    <glyph glyph-name="nine" unicode="9" horiz-adv-x="1180" 
d="M770 633q-63 -35 -123.5 -52.5t-122.5 -17.5q-176 0 -281.5 110t-105.5 292q0 220 146 367t366 147q198 0 315 -118t117 -319q0 -147 -75.5 -298.5t-247.5 -346.5l-402 -454l-118 98zM575 698q150 0 247.5 99.5t97.5 251.5q0 130 -73 205t-198 75q-147 0 -244.5 -102
t-97.5 -258q0 -121 74 -196t194 -75z" />
    <glyph glyph-name="colon" unicode=":" horiz-adv-x="631" 
d="M109 76q0 47 33.5 80.5t80.5 33.5q48 0 81.5 -33.5t33.5 -80.5q0 -48 -33 -81.5t-82 -33.5q-48 0 -81 33.5t-33 81.5zM190 688q0 47 33.5 80t81.5 33t81.5 -33t33.5 -80q0 -48 -33 -81.5t-82 -33.5q-48 0 -81.5 33.5t-33.5 81.5z" />
    <glyph glyph-name="semicolon" unicode=";" horiz-adv-x="631" 
d="M193 688q0 47 33 80t81 33t80.5 -32.5t32.5 -80.5t-32.5 -81.5t-80.5 -33.5t-81 33.5t-33 81.5zM-49 -213l262 489l147 -92l-309 -460z" />
    <glyph glyph-name="less" unicode="&#x3c;" horiz-adv-x="1706" 
d="M1442 1018l-1000 -408l1000 -405v-129l-1178 483v103l1178 483v-127z" />
    <glyph glyph-name="equal" unicode="=" horiz-adv-x="1706" 
d="M1452 477v-117h-1198v117h1198zM1452 860v-117h-1198v117h1198z" />
    <glyph glyph-name="greater" unicode="&#x3e;" horiz-adv-x="1706" 
d="M1442 662v-103l-1178 -483v129l1000 405l-1000 408v127z" />
    <glyph glyph-name="question" unicode="?" horiz-adv-x="1020" 
d="M307 76q0 47 33.5 80.5t81.5 33.5t81.5 -33.5t33.5 -80.5q0 -48 -33.5 -81.5t-81.5 -33.5q-49 0 -82 33.5t-33 81.5zM664 661l143 -34q-23 -142 -107.5 -215.5t-224.5 -73.5q-138 0 -221.5 78.5t-83.5 208.5q0 110 58 186.5t221 163.5q18 10 53 28q233 121 233 220
q0 61 -46 98t-124 37q-88 0 -141 -49.5t-70 -147.5l-157 23q34 158 127.5 237.5t244.5 79.5q153 0 244.5 -78t91.5 -206q0 -87 -54.5 -158.5t-170.5 -136.5q-45 -26 -123 -66q-225 -116 -225 -227q0 -67 41 -107.5t108 -40.5q74 0 124.5 49.5t58.5 130.5z" />
    <glyph glyph-name="at" unicode="@" horiz-adv-x="2048" 
d="M1292 844l58 121h110l-141 -568q-6 -24 -9 -44t-3 -36q0 -44 27.5 -67t82.5 -23q45 0 100 24t103 64q89 76 139.5 196.5t50.5 254.5q0 266 -195.5 428t-518.5 162q-168 0 -312.5 -52t-259.5 -153q-140 -122 -211 -282.5t-71 -354.5q0 -173 60.5 -304t186.5 -230
q101 -81 240 -124.5t295 -43.5q172 0 334.5 48.5t296.5 139.5l45 -66q-147 -109 -313 -165t-347 -56q-191 0 -348 46.5t-276 138.5q-153 117 -228 272t-75 352q0 163 50.5 309t149.5 269q146 176 349.5 267t453.5 91q165 0 311 -43.5t248 -124.5q129 -99 195.5 -230
t66.5 -282q0 -169 -62.5 -308.5t-182.5 -236.5q-69 -55 -148.5 -83.5t-163.5 -28.5q-99 0 -148.5 39t-49.5 116q0 3 1 11t1 12q-51 -87 -127 -132.5t-170 -45.5q-153 0 -233.5 85t-80.5 247q0 230 137 389t332 159q91 0 153.5 -39.5t96.5 -117.5zM1202 473l60 242
q-17 90 -72 140t-135 50q-146 0 -244 -131.5t-98 -327.5q0 -110 51 -169.5t145 -59.5q102 0 183.5 70.5t109.5 185.5z" />
    <glyph glyph-name="A" unicode="A" horiz-adv-x="1284" 
d="M-96 0l862 1522l469 -1522h-195l-98 369h-639l-199 -369h-200zM381 520h522l-176 584z" />
    <glyph glyph-name="B" unicode="B" horiz-adv-x="1124" 
d="M358 831h117q105 0 156.5 8t91.5 25q64 30 99.5 89t35.5 137q0 60 -24.5 107t-71.5 75q-32 18 -75.5 26.5t-133.5 8.5h-57h-74zM270 156h103q150 0 212 8.5t107 28.5q70 31 110 97t40 152q0 67 -27.5 118t-79.5 81q-38 22 -88.5 31.5t-154.5 9.5h-56h-96zM78 0l192 1464
h260q174 0 253 -19.5t135 -66.5q55 -48 83.5 -114.5t28.5 -149.5q0 -140 -70.5 -232t-197.5 -118q124 -35 189 -117.5t65 -204.5q0 -116 -45.5 -208t-130.5 -150q-66 -46 -164 -65t-330 -19h-268z" />
    <glyph glyph-name="C" unicode="C" horiz-adv-x="1374" 
d="M1303 1159q-103 93 -206 137.5t-214 44.5q-121 0 -227 -44t-185 -128q-91 -96 -138.5 -219t-47.5 -260q0 -263 145 -416t395 -153q97 0 193.5 33t204.5 104l-39 -205q-88 -46 -184.5 -69t-202.5 -23q-309 0 -502 199.5t-193 517.5q0 176 62.5 331.5t179.5 272.5
q105 105 242 160t295 55q136 0 251.5 -39.5t217.5 -122.5z" />
    <glyph glyph-name="D" unicode="D" horiz-adv-x="1430" 
d="M274 160h95q224 0 312.5 12.5t152.5 42.5q150 72 232.5 217.5t82.5 341.5q0 165 -66 289.5t-186 187.5q-55 30 -136.5 43t-232.5 13h-102zM78 0l192 1464h197q248 0 347 -15t169 -50q163 -82 253.5 -244t90.5 -371q0 -197 -76 -365.5t-211 -271.5q-104 -79 -240.5 -113
t-445.5 -34h-276z" />
    <glyph glyph-name="E" unicode="E" horiz-adv-x="1055" 
d="M883 162l-23 -162h-782l192 1464h754l-20 -159h-582l-57 -437h581l-20 -157h-582l-74 -549h613z" />
    <glyph glyph-name="F" unicode="F" horiz-adv-x="1020" 
d="M76 0l192 1464h756l-23 -159h-577l-57 -437h577l-20 -157h-578l-94 -711h-176z" />
    <glyph glyph-name="G" unicode="G" horiz-adv-x="1651" 
d="M930 717h618v-10q0 -345 -197 -545.5t-536 -200.5q-325 0 -519 194.5t-194 518.5q0 177 64.5 334t183.5 272q113 108 255.5 163.5t305.5 55.5q207 0 360.5 -72t274.5 -225l-131 -117q-103 131 -226 193.5t-276 62.5q-274 0 -453 -191t-179 -484q0 -249 153 -400t404 -151
q209 0 359 127t171 323h-459z" />
    <glyph glyph-name="H" unicode="H" horiz-adv-x="1450" 
d="M78 0l192 1464h176l-75 -579h749l76 579h178l-192 -1464h-178l94 725h-748l-96 -725h-176z" />
    <glyph glyph-name="I" unicode="I" horiz-adv-x="541" 
d="M84 0l192 1464h183l-193 -1464h-182z" />
    <glyph glyph-name="J" unicode="J" horiz-adv-x="768" 
d="M-70 135l125 109q29 -66 70.5 -99.5t93.5 -33.5q139 0 189 396q5 39 8 61l119 896h176l-127 -972q-2 -17 -7 -48q-34 -265 -88 -354q-37 -62 -106.5 -95.5t-161.5 -33.5q-102 0 -174 43t-117 131z" />
    <glyph glyph-name="K" unicode="K" horiz-adv-x="1241" 
d="M78 0l192 1464h176l-86 -657l695 657h231l-729 -667l645 -797h-229l-617 780l-102 -780h-176z" />
    <glyph glyph-name="L" unicode="L" horiz-adv-x="889" 
d="M78 0l192 1464h176l-172 -1302h527l-21 -162h-702z" />
    <glyph glyph-name="M" unicode="M" horiz-adv-x="1774" 
d="M-16 0l452 1522l416 -1205l702 1205l70 -1522h-174l-23 1014l-626 -1071l-359 1073l-276 -1016h-182z" />
    <glyph glyph-name="N" unicode="N" horiz-adv-x="1540" 
d="M76 2l196 1520l873 -1145l145 1089h174l-200 -1523l-869 1134l-145 -1075h-174z" />
    <glyph glyph-name="O" unicode="O" horiz-adv-x="1753" 
d="M1477 784q0 249 -155 403t-407 154q-126 0 -238.5 -46t-197.5 -132q-97 -98 -148.5 -224t-51.5 -263q0 -250 152.5 -402.5t402.5 -152.5q129 0 244 46t204 134q93 93 144 219.5t51 263.5zM924 1497q331 0 530 -194.5t199 -518.5q0 -174 -65 -328.5t-185 -269.5
q-113 -108 -265 -166.5t-323 -58.5q-318 0 -514.5 197.5t-196.5 515.5q0 178 63.5 334.5t180.5 269.5q111 106 259.5 162.5t316.5 56.5z" />
    <glyph glyph-name="P" unicode="P" horiz-adv-x="1081" 
d="M356 797h119q112 0 166.5 8t93.5 26q67 31 103 95t36 149q0 65 -24.5 114t-73.5 79q-33 21 -79 30t-144 9h-53h-74zM78 0l192 1464h236q196 0 276 -20t140 -68q64 -51 97.5 -126.5t33.5 -168.5q0 -111 -40 -198.5t-118 -147.5q-63 -49 -150.5 -70.5t-277.5 -21.5h-68h-63
l-84 -643h-174z" />
    <glyph glyph-name="Q" unicode="Q" horiz-adv-x="1753" 
d="M1364 -156l-172 199q-86 -39 -178.5 -58.5t-194.5 -19.5q-319 0 -517 195.5t-198 513.5q0 177 63 331.5t181 266.5q115 109 266 167t320 58q328 0 521.5 -195.5t193.5 -529.5q0 -205 -86 -374.5t-244 -274.5l223 -238zM844 434l180 43l197 -231q123 89 189.5 233.5
t66.5 323.5q0 236 -157 387t-405 151q-127 0 -240.5 -46t-199.5 -134q-95 -97 -148 -226.5t-53 -266.5q0 -238 159.5 -394.5t402.5 -156.5q62 0 122.5 13t120.5 40z" />
    <glyph glyph-name="R" unicode="R" horiz-adv-x="1120" 
d="M356 811h119q111 0 165 8t95 27q66 29 102.5 91t36.5 144q0 124 -77.5 175t-296.5 51h-78zM78 0l192 1464h236q192 0 271.5 -20t140.5 -68q66 -52 100.5 -127.5t34.5 -167.5q0 -183 -121.5 -292t-328.5 -111l450 -678h-211l-430 676h-74l-88 -676h-172z" />
    <glyph glyph-name="S" unicode="S" horiz-adv-x="1036" 
d="M-10 268l129 109q60 -139 132.5 -199.5t176.5 -60.5q133 0 213 77t80 205q0 80 -38.5 133t-190.5 136q-196 107 -263 193.5t-67 209.5q0 188 121 308t313 120q127 0 222.5 -55.5t168.5 -171.5l-127 -109q-48 93 -112 138t-148 45q-116 0 -188 -69.5t-72 -178.5
q0 -146 223 -265q39 -21 60 -32q157 -89 215.5 -177t58.5 -221q0 -203 -125 -322.5t-340 -119.5q-157 0 -269 78t-173 229z" />
    <glyph glyph-name="T" unicode="T" horiz-adv-x="1006" 
d="M311 0l170 1305h-368l20 159h922l-21 -159h-372l-173 -1305h-178z" />
    <glyph glyph-name="U" unicode="U" horiz-adv-x="1417" 
d="M254 1464h178l-117 -891q-6 -48 -9 -80t-3 -51q0 -157 82.5 -240t239.5 -83q111 0 195.5 38t140.5 113q73 100 109 371q3 25 5 38l105 785h176l-109 -823v-1q-45 -345 -149 -476q-80 -100 -205 -153.5t-281 -53.5q-223 0 -355 112.5t-132 303.5q0 73 9.5 175t29.5 247z
" />
    <glyph glyph-name="V" unicode="V" horiz-adv-x="1147" 
d="M51 1464h185l270 -1097l559 1097h195l-801 -1521z" />
    <glyph glyph-name="W" unicode="W" horiz-adv-x="1802" 
d="M410 -57l-371 1521h178l242 -1063l524 1121l268 -1121l467 1063h180l-696 -1521l-272 1091z" />
    <glyph glyph-name="X" unicode="X" horiz-adv-x="999" 
d="M-109 0l529 739l-383 725h196l293 -569l404 569h207l-533 -729l385 -735h-188l-305 580l-416 -580h-189z" />
    <glyph glyph-name="Y" unicode="Y" horiz-adv-x="1067" 
d="M338 0l84 639l-393 825h188l303 -663l420 663h199l-541 -827l-84 -637h-176z" />
    <glyph glyph-name="Z" unicode="Z" horiz-adv-x="1143" 
d="M-45 0v37l915 1270h-725l21 157h981v-37l-914 -1273h789l-21 -154h-1046z" />
    <glyph glyph-name="bracketleft" unicode="[" horiz-adv-x="651" 
d="M657 1370h-192l-217 -1655h213l-17 -127h-356l252 1909h334z" />
    <glyph glyph-name="backslash" unicode="\" horiz-adv-x="915" 
d="M614 -190l-452 1687h137l455 -1687h-140z" />
    <glyph glyph-name="bracketright" unicode="]" horiz-adv-x="651" 
d="M-55 -285h192l219 1655h-215l19 127h354l-252 -1909h-334z" />
    <glyph glyph-name="asciicircum" unicode="^" horiz-adv-x="2048" 
d="M1104 1458l520 -557h-158l-442 438l-442 -438h-160l520 557h162z" />
    <glyph glyph-name="underscore" unicode="_" 
d="M1024 -365v-118h-1024v118h1024z" />
    <glyph glyph-name="grave" unicode="`" 
d="M688 1059h-108l-301 348h198z" />
    <glyph glyph-name="a" unicode="a" horiz-adv-x="1161" 
d="M504 109q134 0 226.5 111t92.5 276q0 139 -72.5 225t-189.5 86q-152 0 -249 -108t-97 -275q0 -141 80.5 -228t208.5 -87zM883 915h157l-120 -915h-160l22 137q-66 -89 -147.5 -131.5t-185.5 -42.5q-176 0 -286 128t-110 333q0 227 134 375.5t337 148.5q122 0 205 -54
t129 -163z" />
    <glyph glyph-name="b" unicode="b" horiz-adv-x="1161" 
d="M588 797q-134 0 -227 -110.5t-93 -274.5q0 -140 73 -226t189 -86q153 0 250 108t97 275q0 141 -80 227.5t-209 86.5zM213 0h-162l205 1550h160l-105 -778q64 87 146.5 130.5t183.5 43.5q179 0 288 -128t109 -341q0 -90 -30.5 -179t-87.5 -165q-62 -82 -154 -127t-197 -45
q-120 0 -203.5 54.5t-129.5 162.5z" />
    <glyph glyph-name="c" unicode="c" horiz-adv-x="948" 
d="M872 678q-71 72 -145.5 105.5t-161.5 33.5q-160 0 -261 -112t-101 -291q0 -144 87.5 -232t231.5 -88q70 0 137 28t148 93l-25 -172q-54 -40 -128.5 -61t-161.5 -21q-202 0 -326.5 125.5t-124.5 329.5q0 234 148.5 383t385.5 149q86 0 164.5 -23t155.5 -71z" />
    <glyph glyph-name="d" unicode="d" horiz-adv-x="1161" 
d="M500 109q133 0 226 111t93 276q0 139 -72.5 225t-189.5 86q-152 0 -248 -107.5t-96 -275.5q0 -141 79.5 -228t207.5 -87zM961 1550h159l-205 -1550h-159l22 137q-66 -89 -147.5 -131.5t-186.5 -42.5q-175 0 -285 128t-110 333q0 227 134 375.5t337 148.5q122 0 205 -54
t129 -163z" />
    <glyph glyph-name="e" unicode="e" horiz-adv-x="1040" 
d="M934 431l-733 -1v-16q0 -147 75 -231.5t205 -84.5q81 0 149 39t132 121l110 -90q-80 -104 -176 -155.5t-209 -51.5q-205 0 -325.5 123.5t-120.5 333.5q0 229 140 379.5t351 150.5q192 0 298 -117t106 -329q0 -29 -0.5 -44t-1.5 -27zM782 561q-2 124 -67.5 191t-184.5 67
q-118 0 -203.5 -70t-111.5 -188h567z" />
    <glyph glyph-name="f" unicode="f" horiz-adv-x="635" 
d="M127 0l102 782h-168l17 133h170l35 269q29 222 90.5 303.5t189.5 81.5q39 0 74.5 -8.5t71.5 -26.5l-27 -139q-43 19 -66 25.5t-41 6.5q-56 0 -83 -42t-46 -185l-38 -285h202l-18 -133h-201l-102 -782h-162z" />
    <glyph glyph-name="g" unicode="g" horiz-adv-x="1161" 
d="M504 121q133 0 226 110t93 273q0 138 -72.5 222.5t-189.5 84.5q-152 0 -249 -106t-97 -271q0 -139 80.5 -226t208.5 -87zM883 915h157l-92 -727q-3 -22 -8 -63q-33 -272 -92 -369q-62 -103 -157.5 -149.5t-248.5 -46.5q-183 0 -293.5 101t-113.5 271l157 21
q4 -126 78.5 -194t208.5 -68q121 0 195.5 83.5t91.5 237.5l16 140q-66 -89 -147.5 -132t-185.5 -43q-173 0 -284.5 125.5t-111.5 321.5q0 226 134.5 375t336.5 149q122 0 206 -53.5t128 -159.5z" />
    <glyph glyph-name="h" unicode="h" horiz-adv-x="1110" 
d="M66 0l204 1550h158l-109 -784q70 91 155.5 136.5t187.5 45.5q131 0 207.5 -72t76.5 -196q0 -22 -2 -48t-6 -54l-76 -578h-160l72 561q1 7 2 19q6 49 6 65q0 82 -50 125t-146 43q-126 0 -203 -89.5t-100 -260.5l-62 -463h-155z" />
    <glyph glyph-name="i" unicode="i" horiz-adv-x="494" 
d="M203 1348q0 44 32.5 76t77.5 32q46 0 77.5 -31.5t31.5 -76.5q0 -47 -31.5 -79t-77.5 -32q-45 0 -77.5 32.5t-32.5 78.5zM72 0l121 915h159l-121 -915h-159z" />
    <glyph glyph-name="j" unicode="j" horiz-adv-x="494" 
d="M203 1348q0 44 32.5 76t77.5 32q46 0 77.5 -31.5t31.5 -76.5q0 -47 -31.5 -79t-77.5 -32q-45 0 -77.5 32.5t-32.5 78.5zM170 -446h-160l183 1361h159z" />
    <glyph glyph-name="k" unicode="k" horiz-adv-x="967" 
d="M293 518l465 397h221l-502 -417l393 -498h-208l-373 485l-66 -485h-157l204 1550h158z" />
    <glyph glyph-name="l" unicode="l" horiz-adv-x="494" 
d="M231 0h-161l204 1550h160z" />
    <glyph glyph-name="m" unicode="m" horiz-adv-x="1610" 
d="M633 0l74 562q3 21 4.5 42t1.5 41q0 83 -42.5 125.5t-125.5 42.5q-108 0 -172.5 -87.5t-87.5 -262.5l-62 -463h-157l122 915h152l-21 -141q65 88 142 131t168 43q92 0 156 -45.5t85 -126.5q69 86 150.5 129t173.5 43q117 0 185.5 -72t68.5 -196q0 -29 -7 -92
q-1 -7 -1 -10l-76 -578h-160l74 561q3 21 4.5 42t1.5 42q0 83 -42.5 125.5t-125.5 42.5q-111 0 -173.5 -84t-86.5 -266l-61 -463h-162z" />
    <glyph glyph-name="n" unicode="n" horiz-adv-x="1110" 
d="M66 0l120 915h152l-21 -149q77 93 161 137.5t184 44.5q131 0 207.5 -72t76.5 -196q0 -22 -2 -48t-6 -54l-76 -578h-160l72 561q1 7 2 19q6 49 6 65q0 82 -50 125t-146 43q-126 0 -203 -89.5t-100 -260.5l-62 -463h-155z" />
    <glyph glyph-name="o" unicode="o" horiz-adv-x="1128" 
d="M549 819q-151 0 -249.5 -111.5t-98.5 -283.5q0 -151 85.5 -243.5t225.5 -92.5q150 0 248 111t98 282q0 148 -86.5 243t-222.5 95zM41 420q0 225 148 376.5t368 151.5q199 0 329 -125.5t130 -312.5q0 -244 -143.5 -396.5t-370.5 -152.5q-209 0 -335 126t-126 333z" />
    <glyph glyph-name="p" unicode="p" horiz-adv-x="1161" 
d="M590 799q-135 0 -227.5 -110.5t-92.5 -274.5q0 -138 73 -223t189 -85q153 0 250 106.5t97 272.5q0 140 -80.5 227t-208.5 87zM-4 -446l178 1361h160l-21 -143q67 90 148.5 133t183.5 43q173 0 284 -128.5t111 -330.5q0 -223 -133.5 -373.5t-333.5 -150.5
q-123 0 -205 53.5t-126 161.5l-82 -626h-164z" />
    <glyph glyph-name="q" unicode="q" horiz-adv-x="1161" 
d="M504 109q134 0 226.5 111t92.5 276q0 139 -72.5 225t-189.5 86q-152 0 -249 -108t-97 -275q0 -141 80.5 -228t208.5 -87zM883 915h157l-178 -1361h-162l82 583q-66 -90 -148 -133t-185 -43q-174 0 -285 127.5t-111 327.5q0 231 133.5 382.5t335.5 151.5q123 0 206.5 -54
t129.5 -163z" />
    <glyph glyph-name="r" unicode="r" horiz-adv-x="692" 
d="M639 766q-26 13 -53 20t-54 7q-105 0 -166.5 -88t-86.5 -273l-58 -432h-155l120 915h158l-25 -145q63 93 127.5 135.5t141.5 42.5q22 0 45.5 -5t46.5 -15z" />
    <glyph glyph-name="s" unicode="s" horiz-adv-x="840" 
d="M-4 133l102 121q50 -81 113.5 -121.5t140.5 -40.5q86 0 136.5 39.5t50.5 106.5q0 75 -142 140q-36 17 -57 28q-131 63 -174 117t-43 136q0 126 93 207.5t239 81.5q92 0 170 -34t141 -101l-96 -115q-42 56 -99 84.5t-127 28.5q-69 0 -117 -39.5t-48 -93.5q0 -74 170 -147
l16 -7q135 -58 181 -115t46 -149q0 -139 -90 -219t-246 -80q-116 0 -204 42t-156 130z" />
    <glyph glyph-name="t" unicode="t" horiz-adv-x="588" 
d="M104 0l103 782h-170l18 133h170l47 369h162l-49 -369h201l-17 -133h-202l-103 -782h-160z" />
    <glyph glyph-name="u" unicode="u" horiz-adv-x="1049" 
d="M178 915h160l-53 -405q-2 -16 -6 -46q-21 -153 -21 -202q0 -74 51 -115t144 -41q123 0 179 66t85 289l59 454h158l-62 -465q-1 -11 -4 -32q-33 -251 -120 -344q-52 -55 -129.5 -84t-174.5 -29q-157 0 -251.5 77.5t-94.5 205.5q0 49 23 232l2 14z" />
    <glyph glyph-name="v" unicode="v" horiz-adv-x="915" 
d="M18 915h170l197 -636l363 636h182l-588 -970z" />
    <glyph glyph-name="w" unicode="w" horiz-adv-x="1458" 
d="M27 915h168l178 -626l370 688l205 -688l338 626h168l-547 -970l-202 669l-365 -669z" />
    <glyph glyph-name="x" unicode="x" horiz-adv-x="928" 
d="M-35 0l379 471l-248 444h185l172 -340l256 340h192l-379 -460l252 -455h-184l-168 348l-264 -348h-193z" />
    <glyph glyph-name="y" unicode="y" horiz-adv-x="952" 
d="M-12 -446l319 546l-250 815h170l189 -653l356 653h182l-788 -1361h-178z" />
    <glyph glyph-name="z" unicode="z" horiz-adv-x="883" 
d="M-25 0l592 782h-471l19 133h719l-574 -774h473l-18 -141h-740z" />
    <glyph glyph-name="braceleft" unicode="{" 
d="M858 1350q-8 0 -23 1t-22 1q-121 0 -164 -47t-43 -197v-242q0 -166 -43.5 -235.5t-154.5 -100.5q111 -30 154.5 -99.5t43.5 -235.5v-242q0 -149 43.5 -195.5t169.5 -46.5h39v-125h-35q-99 0 -159.5 12t-102.5 40q-55 36 -77.5 100t-22.5 213v244q0 152 -55 213t-189 61
q-7 0 -22 -1t-23 -1v127q8 0 23 -1t22 -1q134 0 189 61.5t55 214.5v244q0 153 22.5 215.5t77.5 97.5q42 28 102 40t160 12h35v-127z" />
    <glyph glyph-name="bar" unicode="|" 
d="M575 1565v-2048h-126v2048h126z" />
    <glyph glyph-name="braceright" unicode="}" 
d="M563 1112v-244q0 -152 55.5 -214t190.5 -62q7 0 22 1t23 1v-127q-8 0 -23 1t-22 1q-135 0 -190.5 -62t-55.5 -214v-242q0 -153 -22 -216.5t-76 -99.5q-39 -26 -97.5 -37.5t-160.5 -11.5h-41v125q8 0 23 -1t22 -1q120 0 163.5 47.5t43.5 198.5v240q0 166 43.5 235.5
t154.5 99.5q-111 31 -154.5 100.5t-43.5 235.5v242q0 149 -44 196.5t-169 47.5h-39v125h35q100 0 161 -12.5t103 -39.5q54 -35 76 -98t22 -215z" />
    <glyph glyph-name="asciitilde" unicode="~" horiz-adv-x="1706" 
d="M1530 627q-101 -72 -197.5 -108t-189.5 -36q-43 0 -90.5 9t-100.5 26q-30 10 -87 31q-202 72 -302 72q-83 0 -173.5 -37.5t-211.5 -122.5v133q105 73 202 109t185 36q56 0 116.5 -12.5t174.5 -52.5q14 -5 44 -16q158 -58 245 -58q84 0 174.5 37t210.5 121v-131z" />
    <glyph glyph-name="Euro" horiz-adv-x="1180" 
d="M1182 1350l-37 -174q-62 72 -141.5 109.5t-169.5 37.5q-147 0 -256 -107.5t-160 -304.5h635l-58 -106h-597q-8 -45 -12 -83t-5 -72l528 -1l-57 -102l-471 -1q5 -211 84.5 -322t226.5 -111q74 0 153.5 27t168.5 83l-39 -194q-68 -35 -141.5 -52.5t-151.5 -17.5
q-228 0 -352 152.5t-128 435.5h-192l47 102h145q3 44 6.5 82t8.5 74h-162l47 106h136q64 263 223.5 415.5t367.5 152.5q92 0 182.5 -33.5t170.5 -95.5z" />
    <glyph glyph-name="Euro" unicode="&#x20ac;" horiz-adv-x="1180" 
d="M1182 1350l-37 -174q-62 72 -141.5 109.5t-169.5 37.5q-147 0 -256 -107.5t-160 -304.5h635l-58 -106h-597q-8 -45 -12 -83t-5 -72l528 -1l-57 -102l-471 -1q5 -211 84.5 -322t226.5 -111q74 0 153.5 27t168.5 83l-39 -194q-68 -35 -141.5 -52.5t-151.5 -17.5
q-228 0 -352 152.5t-128 435.5h-192l47 102h145q3 44 6.5 82t8.5 74h-162l47 106h136q64 263 223.5 415.5t367.5 152.5q92 0 182.5 -33.5t170.5 -95.5z" />
    <glyph glyph-name="nonbreakingspace" unicode="&#xa0;" horiz-adv-x="1180" 
 />
    <glyph glyph-name="exclamdown" unicode="&#xa1;" horiz-adv-x="631" 
d="M449 1106l-150 -1145h-168l152 1145h166zM506 1384q0 -48 -33 -81t-80 -33t-80.5 33.5t-33.5 80.5q0 48 32.5 80.5t81.5 32.5t81 -32t32 -81z" />
    <glyph glyph-name="cent" unicode="&#xa2;" horiz-adv-x="1180" 
d="M506 10q-158 22 -250 137.5t-92 292.5q0 224 140.5 367t361.5 143l26 156h99l-29 -158q61 -8 114 -29t99 -55l-39 -166q-49 48 -96 72.5t-103 31.5l-112 -663q71 0 140.5 27.5t139.5 83.5l-39 -182q-66 -34 -126.5 -50t-116.5 -16h-21l-45 -252h-96zM530 154l113 657
q-149 -21 -232 -115t-83 -241q0 -117 56 -200t146 -101z" />
    <glyph glyph-name="sterling" unicode="&#xa3;" horiz-adv-x="1180" 
d="M41 96q42 53 89.5 86t98.5 45q46 76 67 137t21 117q0 22 -3 48t-9 55h-248l17 114h196q-38 115 -53.5 188.5t-15.5 131.5q0 197 133.5 329t333.5 132q191 0 296 -104t105 -294q0 -13 -1 -29l-3 -48l-153 -17q2 31 2.5 45t0.5 27q0 133 -64.5 204.5t-184.5 71.5
q-129 0 -215 -87.5t-86 -217.5q0 -93 51 -292q7 -27 10 -39l379 -1l-14 -114h-342q4 -16 6 -32.5t2 -35.5q0 -65 -31.5 -135t-97.5 -151q18 2 26 2.5t15 0.5q35 0 72.5 -11.5t105.5 -47.5l6 -3q112 -58 199 -58q48 0 96 25.5t96 76.5l96 -111q-65 -72 -137 -107.5
t-155 -35.5q-79 0 -206 49q-18 7 -27 10q-10 4 -28 11q-136 53 -186 53q-42 0 -86.5 -24t-116.5 -91z" />
    <glyph glyph-name="currency" unicode="&#xa4;" horiz-adv-x="1180" 
d="M1182 1350l-37 -174q-62 72 -141.5 109.5t-169.5 37.5q-147 0 -256 -107.5t-160 -304.5h635l-58 -106h-597q-8 -45 -12 -83t-5 -72l528 -1l-57 -102l-471 -1q5 -211 84.5 -322t226.5 -111q74 0 153.5 27t168.5 83l-39 -194q-68 -35 -141.5 -52.5t-151.5 -17.5
q-228 0 -352 152.5t-128 435.5h-192l47 102h145q3 44 6.5 82t8.5 74h-162l47 106h136q64 263 223.5 415.5t367.5 152.5q92 0 182.5 -33.5t170.5 -95.5z" />
    <glyph glyph-name="yen" unicode="&#xa5;" horiz-adv-x="1180" 
d="M424 0l80 602h-488l17 121h432l-76 158h-336l17 120h262l-217 451h174l315 -672l430 672h187l-293 -451h254l-17 -120h-319l-107 -158h406l-17 -121h-452l-80 -602h-172z" />
    <glyph glyph-name="brokenbar" unicode="&#xa6;" 
d="M575 408v-758h-126v758h126zM575 1432v-758h-126v758h126z" />
    <glyph glyph-name="section" unicode="&#xa7;" horiz-adv-x="1090" 
d="M756 537q0 100 -66 163.5t-170 63.5q-102 0 -173 -75t-71 -183q0 -98 62.5 -159.5t163.5 -61.5q113 0 183.5 70t70.5 182zM444 870q-101 43 -149.5 112t-48.5 169q0 153 107.5 249.5t279.5 96.5q162 0 253 -87t91 -243v-10l-153 -4q-3 97 -55 150t-144 53
q-95 0 -157 -59.5t-62 -147.5q0 -41 17 -75t54 -68q24 -22 106 -60t128 -63q103 -57 158 -143.5t55 -192.5q0 -151 -93.5 -254t-236.5 -109q99 -49 146.5 -119t47.5 -165q0 -152 -108 -250.5t-277 -98.5q-161 0 -253.5 87.5t-92.5 240.5v19l154 2q0 -98 52.5 -152.5
t146.5 -54.5q93 0 156 59t63 146q0 37 -17 71t-55 70q-23 22 -106.5 64.5t-124.5 66.5q-101 58 -154 143t-53 189q0 152 91 255.5t234 112.5z" />
    <glyph glyph-name="dieresis" unicode="&#xa8;" 
d="M633 1223q0 41 32.5 74.5t73.5 33.5q44 0 75.5 -32t31.5 -76q0 -48 -30 -78.5t-77 -30.5q-45 0 -75.5 31t-30.5 78zM303 1223q0 41 32.5 74.5t74.5 33.5q43 0 74.5 -32t31.5 -76q0 -48 -30 -78.5t-76 -30.5t-76.5 31t-30.5 78z" />
    <glyph glyph-name="copyright" unicode="&#xa9;" horiz-adv-x="1706" 
d="M1065 911q-15 77 -70.5 120.5t-138.5 43.5q-117 0 -182.5 -92.5t-65.5 -259.5q0 -160 66.5 -252t181.5 -92q87 0 145.5 48.5t73.5 133.5h129q-11 -127 -109 -207t-245 -80q-176 0 -280.5 121t-104.5 326q0 208 107.5 332.5t287.5 124.5q137 0 230 -74.5t104 -192.5h-129z
M1501 725q0 130 -49 249t-139 210q-92 92 -210 140t-251 48q-132 0 -247.5 -47.5t-205.5 -138.5q-93 -95 -142.5 -214t-49.5 -247q0 -127 49 -244t141 -211q93 -92 209.5 -141t245.5 -49t248.5 50t214.5 142q91 90 138.5 205.5t47.5 247.5zM852 1460q151 0 285 -55t239 -160
q102 -102 156.5 -236t54.5 -284q0 -151 -54 -283t-157 -233q-109 -106 -244.5 -162.5t-279.5 -56.5q-146 0 -278 55.5t-238 161.5q-106 105 -161.5 238.5t-55.5 279.5q0 145 56.5 279.5t162.5 242.5q102 104 234 158.5t280 54.5z" />
    <glyph glyph-name="ordfeminine" unicode="&#xaa;" horiz-adv-x="870" 
d="M111 657h610l-14 -112h-611zM702 1360l17 108h137l-88 -655h-137l12 78q-45 -53 -103.5 -79t-131.5 -26q-137 0 -223.5 92t-86.5 238q0 164 101.5 269.5t259.5 105.5q89 0 149 -32.5t94 -98.5zM487 1376q-110 0 -178.5 -71t-68.5 -185q0 -96 58 -155.5t151 -59.5
q96 0 161.5 73.5t65.5 184.5q0 96 -52.5 154.5t-136.5 58.5z" />
    <glyph glyph-name="guillemotleft" unicode="&#xab;" horiz-adv-x="985" 
d="M811 862l84 -86l-297 -323l215 -338l-100 -68l-258 416zM397 862l84 -86l-295 -323l213 -338l-98 -68l-260 416z" />
    <glyph glyph-name="logicalnot" unicode="&#xac;" horiz-adv-x="1706" 
d="M1452 858v-502h-115v385h-1083v117h1198z" />
    <glyph glyph-name="sfthyphen" unicode="&#xad;" horiz-adv-x="674" 
d="M76 532h471l-21 -155h-469z" />
    <glyph glyph-name="registered" unicode="&#xae;" horiz-adv-x="1706" 
d="M846 1065h-144v-291h148q123 0 175 33t52 108q0 79 -54.5 114.5t-176.5 35.5zM872 1157q178 0 264.5 -57t86.5 -174q0 -89 -53 -148.5t-144 -75.5l188 -385h-157l-176 365h-179v-365h-141v840h311zM1501 721q0 133 -48 251.5t-138 209.5q-94 93 -211.5 141.5t-251.5 48.5
q-132 0 -247 -47t-204 -137q-94 -95 -144 -214t-50 -249q0 -127 49 -244t141 -211q91 -92 208 -141t245 -49q131 0 249.5 48.5t213.5 141.5q91 90 139.5 206t48.5 245zM852 1460q150 0 284 -55.5t240 -161.5q102 -102 156.5 -235.5t54.5 -282.5q0 -151 -54.5 -283
t-158.5 -233q-109 -106 -243.5 -162.5t-278.5 -56.5q-145 0 -278.5 56t-239.5 163q-105 104 -160 237t-55 279q0 147 57 282t164 242q101 103 232 157t280 54z" />
    <glyph glyph-name="macron" unicode="&#xaf;" 
d="M297 1153l18 139h541l-18 -139h-541z" />
    <glyph glyph-name="degree" unicode="&#xb0;" horiz-adv-x="674" 
d="M539 1171q0 84 -58.5 142.5t-142.5 58.5t-143.5 -58.5t-59.5 -142.5t59.5 -143t143.5 -59t142.5 59t58.5 143zM338 1454q117 0 200 -83t83 -200q0 -116 -83.5 -199t-201.5 -83t-199.5 82t-81.5 200q0 119 82.5 201t200.5 82z" />
    <glyph glyph-name="plusminus" unicode="&#xb1;" horiz-adv-x="1706" 
d="M1452 158v-117h-1198v117h1198zM913 1180v-344h539v-117h-539v-344h-118v344h-541v117h541v344h118z" />
    <glyph glyph-name="twosuperior" unicode="&#xb2;" horiz-adv-x="778" 
d="M649 575h-651l227 203q54 50 135.5 123t98.5 90q85 85 112 135t27 105q0 64 -48 103.5t-126 39.5q-97 0 -149 -48t-60 -144h-115q6 132 91.5 206t232.5 74q135 0 213 -62t78 -169q0 -80 -46.5 -154.5t-179.5 -191.5l-241 -215h418z" />
    <glyph glyph-name="threesuperior" unicode="&#xb3;" horiz-adv-x="778" 
d="M43 805h108q2 -78 51 -122t136 -44q98 0 154.5 50.5t56.5 137.5q0 73 -54.5 111.5t-158.5 38.5q-14 0 -21 -0.5t-13 -1.5l11 84h19q119 0 184.5 46t65.5 130q0 64 -42 101.5t-114 37.5q-74 0 -120 -37t-54 -102h-108q8 106 86.5 166.5t207.5 60.5q119 0 187.5 -57.5
t68.5 -157.5q0 -86 -54 -146.5t-148 -78.5q84 -18 128 -66.5t44 -124.5q0 -126 -91.5 -202t-242.5 -76q-137 0 -212 61.5t-75 173.5v17z" />
    <glyph glyph-name="acute" unicode="&#xb4;" 
d="M524 1059h-121l232 348h190z" />
    <glyph glyph-name="mu" unicode="&#xb5;" horiz-adv-x="1128" 
d="M362 1069l-126 -595q-8 -33 -11.5 -67t-3.5 -71q0 -109 57 -168t160 -59q125 0 208 101t128 308l121 551h156l-162 -754q-12 -52 -17.5 -84t-5.5 -51q0 -32 18.5 -48.5t53.5 -16.5q9 0 17.5 0.5t17.5 1.5l-27 -125q-21 -5 -44 -7.5t-48 -2.5q-70 0 -104.5 35t-40.5 112
q-41 -70 -117 -108.5t-172 -38.5q-87 0 -152.5 34t-109.5 103l-113 -545h-156l316 1495h157z" />
    <glyph glyph-name="paragraph" unicode="&#xb6;" 
d="M948 1401h-125v-1401h-94v1401h-182v-1401h-96v782q-173 8 -274 102.5t-101 245.5q0 157 107.5 253t285.5 96h479v-78z" />
    <glyph glyph-name="glyph122" unicode="&#xb7;" horiz-adv-x="590" 
d="M186 719q0 47 33.5 81t81.5 34t81.5 -34t33.5 -81q0 -48 -33 -80.5t-82 -32.5t-82 32.5t-33 80.5z" />
    <glyph glyph-name="cedilla" unicode="&#xb8;" 
d="M121 -422l37 98q79 -23 129.5 -34t81.5 -11q72 0 104.5 23.5t32.5 75.5q0 43 -40 61.5t-138 18.5h-23l66 190h78l-35 -102h22q105 0 159 -42t54 -124q0 -99 -64.5 -152t-185.5 -53q-47 0 -115 12.5t-163 38.5z" />
    <glyph glyph-name="onesuperior" unicode="&#xb9;" horiz-adv-x="778" 
d="M305 575l111 777h-185l41 94h275l-127 -871h-115z" />
    <glyph glyph-name="ordmasculine" unicode="&#xba;" horiz-adv-x="846" 
d="M424 1491q158 0 257 -91.5t99 -234.5q0 -166 -110.5 -273.5t-282.5 -107.5q-160 0 -258 92t-98 240q0 161 112.5 268t280.5 107zM643 1153q0 102 -63 167.5t-162 65.5q-107 0 -177.5 -74.5t-70.5 -189.5q0 -105 62.5 -169t164.5 -64q107 0 176.5 74.5t69.5 189.5zM20 657
h642l-15 -112h-641z" />
    <glyph glyph-name="guillemotright" unicode="&#xbb;" horiz-adv-x="985" 
d="M516 47l-84 86l297 324l-215 338l100 67l258 -413zM102 47l-82 86l295 324l-213 338l99 67l260 -413z" />
    <glyph glyph-name="onequarter" unicode="&#xbc;" horiz-adv-x="1829" 
d="M1473 0l26 184h-420v17l566 626h53l-82 -563h110l-14 -80h-108l-29 -184h-102zM1511 264l64 375l-330 -375h266zM401 -39l916 1518h108l-913 -1518h-111zM291 633l106 723h-176l39 88h262l-121 -811h-110z" />
    <glyph glyph-name="onehalf" unicode="&#xbd;" horiz-adv-x="1829" 
d="M1706 0h-623l217 188q69 60 127.5 113t96.5 88q83 81 108 126t25 95q0 61 -46 98t-120 37q-94 0 -143.5 -44.5t-57.5 -135.5h-108q6 124 87.5 193t221.5 69q129 0 202.5 -57.5t73.5 -157.5q0 -75 -44 -144.5t-171 -178.5l-229 -201h399zM401 -39l916 1518h108l-913 -1518
h-111zM291 633l106 723h-176l39 88h262l-121 -811h-110z" />
    <glyph glyph-name="threequarters" unicode="&#xbe;" horiz-adv-x="1829" 
d="M1473 0l26 184h-420v17l566 626h53l-82 -563h110l-14 -80h-108l-29 -184h-102zM1511 264l64 375l-330 -375h266zM401 -39l916 1518h108l-913 -1518h-111zM41 846h104q0 -73 47 -113.5t132 -40.5q93 0 146.5 47.5t53.5 128.5q0 69 -52 104.5t-153 35.5q-12 0 -18.5 -0.5
t-13.5 -1.5l12 79h16q116 0 178 42t62 120q0 61 -40 96t-109 35q-71 0 -114.5 -34.5t-49.5 -94.5l-105 1q8 98 82.5 154t198.5 56q114 0 179 -53.5t65 -146.5q0 -81 -52 -138t-141 -73q80 -16 122 -61.5t42 -117.5q0 -117 -87 -188.5t-231 -71.5q-130 0 -202 58.5t-72 162.5
v15z" />
    <glyph glyph-name="questiondown" unicode="&#xbf;" horiz-adv-x="1020" 
d="M696 1386q0 -47 -33 -79.5t-81 -32.5t-81.5 32.5t-33.5 79.5q0 49 33 82t82 33q48 0 81 -33t33 -82zM339 801l-144 35q23 141 108 214.5t225 73.5q138 0 222 -78.5t84 -207.5q0 -110 -58.5 -186.5t-222.5 -164.5q-20 -10 -57 -29q-228 -119 -228 -216q0 -62 46 -99
t124 -37q89 0 142 49t69 146l158 -22q-34 -159 -127.5 -238.5t-245.5 -79.5t-244 78.5t-92 206.5q0 87 54.5 158.5t169.5 136.5q45 25 125 66q225 116 225 227q0 66 -42.5 107.5t-109.5 41.5q-73 0 -122.5 -50t-58.5 -132z" />
    <glyph glyph-name="Agrave" unicode="&#xc0;" horiz-adv-x="1284" 
d="M-96 0l862 1522l469 -1522h-195l-98 369h-639l-199 -369h-200zM381 520h522l-176 584zM897 1610h-108l-301 348h198z" />
    <glyph glyph-name="Aacute" unicode="&#xc1;" horiz-adv-x="1284" 
d="M-96 0l862 1522l469 -1522h-195l-98 369h-639l-199 -369h-200zM381 520h522l-176 584zM733 1610h-121l232 348h190z" />
    <glyph glyph-name="Acircumflex" unicode="&#xc2;" horiz-adv-x="1284" 
d="M-96 0l862 1522l469 -1522h-195l-98 369h-639l-199 -369h-200zM381 520h522l-176 584zM1040 1610h-110l-133 219l-226 -219h-120l266 348h184z" />
    <glyph glyph-name="Atilde" unicode="&#xc3;" horiz-adv-x="1284" 
d="M-96 0l862 1522l469 -1522h-195l-98 369h-639l-199 -369h-200zM381 520h522l-176 584zM1081 1894q-28 -104 -78 -153t-128 -49q-17 0 -30 2t-26 6l-88 29q-18 5 -31.5 7.5t-23.5 2.5q-34 0 -55.5 -20t-31.5 -60h-104q25 104 75.5 155.5t127.5 51.5q15 0 31.5 -2.5
t35.5 -7.5l89 -27q12 -4 25 -6t24 -2q33 0 53 17t33 56h102z" />
    <glyph glyph-name="Adieresis" unicode="&#xc4;" horiz-adv-x="1284" 
d="M-96 0l862 1522l469 -1522h-195l-98 369h-639l-199 -369h-200zM381 520h522l-176 584zM842 1774q0 41 32.5 74.5t73.5 33.5q44 0 75.5 -32t31.5 -76q0 -48 -30 -78.5t-77 -30.5q-45 0 -75.5 31t-30.5 78zM512 1774q0 41 32.5 74.5t74.5 33.5q43 0 74.5 -32t31.5 -76
q0 -48 -30 -78.5t-76 -30.5t-76.5 31t-30.5 78z" />
    <glyph glyph-name="Aring" unicode="&#xc5;" horiz-adv-x="1284" 
d="M637 1737q0 -53 36.5 -89t88.5 -36t88.5 36t36.5 89q0 52 -36.5 89.5t-88.5 37.5q-53 0 -89 -37t-36 -90zM528 1739q0 97 68.5 165t165.5 68q98 0 165.5 -67.5t67.5 -165.5t-68 -167t-165 -69q-96 0 -165 70t-69 166zM-96 0l825 1464h62l444 -1464h-195l-98 369h-639
l-199 -369h-200zM381 520h522l-176 629z" />
    <glyph glyph-name="AE" unicode="&#xc6;" horiz-adv-x="1753" 
d="M-98 0l815 1464h710l37 -161h-592l115 -445h584l35 -153h-580l141 -551h572l37 -154h-740l-94 365h-643l-199 -365h-198zM377 516h526l-166 668z" />
    <glyph glyph-name="Ccedilla" unicode="&#xc7;" horiz-adv-x="1374" 
d="M1303 1159q-103 93 -206 137.5t-214 44.5q-121 0 -227 -44t-185 -128q-91 -96 -138.5 -219t-47.5 -260q0 -263 145 -416t395 -153q97 0 193.5 33t204.5 104l-39 -205q-88 -46 -184.5 -69t-202.5 -23q-309 0 -502 199.5t-193 517.5q0 176 62.5 331.5t179.5 272.5
q105 105 242 160t295 55q136 0 251.5 -39.5t217.5 -122.5zM469 -422l37 98q79 -23 129.5 -34t81.5 -11q72 0 104.5 23.5t32.5 75.5q0 43 -40 61.5t-138 18.5h-23l66 190h78l-35 -102h22q105 0 159 -42t54 -124q0 -99 -64.5 -152t-185.5 -53q-47 0 -115 12.5t-163 38.5z" />
    <glyph glyph-name="Egrave" unicode="&#xc8;" horiz-adv-x="1055" 
d="M883 162l-23 -162h-782l192 1464h754l-20 -159h-582l-57 -437h581l-20 -157h-582l-74 -549h613zM803 1610h-108l-301 348h198z" />
    <glyph glyph-name="Eacute" unicode="&#xc9;" horiz-adv-x="1055" 
d="M883 162l-23 -162h-782l192 1464h754l-20 -159h-582l-57 -437h581l-20 -157h-582l-74 -549h613zM639 1610h-121l232 348h190z" />
    <glyph glyph-name="Ecircumflex" unicode="&#xca;" horiz-adv-x="1055" 
d="M883 162l-23 -162h-782l192 1464h754l-20 -159h-582l-57 -437h581l-20 -157h-582l-74 -549h613zM946 1610h-110l-133 219l-226 -219h-120l266 348h184z" />
    <glyph glyph-name="Edieresis" unicode="&#xcb;" horiz-adv-x="1055" 
d="M883 162l-23 -162h-782l192 1464h754l-20 -159h-582l-57 -437h581l-20 -157h-582l-74 -549h613zM748 1774q0 41 32.5 74.5t73.5 33.5q44 0 75.5 -32t31.5 -76q0 -48 -30 -78.5t-77 -30.5q-45 0 -75.5 31t-30.5 78zM418 1774q0 41 32.5 74.5t74.5 33.5q43 0 74.5 -32
t31.5 -76q0 -48 -30 -78.5t-76 -30.5t-76.5 31t-30.5 78z" />
    <glyph glyph-name="Igrave" unicode="&#xcc;" horiz-adv-x="541" 
d="M84 0l192 1464h183l-193 -1464h-182zM520 1610h-108l-301 348h198z" />
    <glyph glyph-name="Iacute" unicode="&#xcd;" horiz-adv-x="541" 
d="M84 0l192 1464h183l-193 -1464h-182zM356 1610h-121l232 348h190z" />
    <glyph glyph-name="Icircumflex" unicode="&#xce;" horiz-adv-x="541" 
d="M84 0l192 1464h183l-193 -1464h-182zM663 1610h-110l-133 219l-226 -219h-120l266 348h184z" />
    <glyph glyph-name="Idieresis" unicode="&#xcf;" horiz-adv-x="541" 
d="M84 0l192 1464h183l-193 -1464h-182zM465 1774q0 41 32.5 74.5t73.5 33.5q44 0 75.5 -32t31.5 -76q0 -48 -30 -78.5t-77 -30.5q-45 0 -75.5 31t-30.5 78zM135 1774q0 41 32.5 74.5t74.5 33.5q43 0 74.5 -32t31.5 -76q0 -48 -30 -78.5t-76 -30.5t-76.5 31t-30.5 78z" />
    <glyph glyph-name="Eth" unicode="&#xd0;" horiz-adv-x="1448" 
d="M369 735l-76 -575h94q224 0 313 12.5t152 42.5q151 72 234 218t83 341q0 164 -66.5 289t-187.5 188q-55 30 -136.5 43t-231.5 13h-103l-55 -424h410l-21 -148h-409zM96 0l97 735h-209l20 148h207l78 581h198q248 0 346.5 -15t167.5 -50q164 -83 255.5 -245t91.5 -370
q0 -197 -76 -365.5t-211 -271.5q-105 -79 -242 -113t-446 -34h-277z" />
    <glyph glyph-name="Ntilde" unicode="&#xd1;" horiz-adv-x="1540" 
d="M76 2l196 1520l873 -1145l145 1089h174l-200 -1523l-869 1134l-145 -1075h-174zM1204 1894q-28 -104 -78 -153t-128 -49q-17 0 -30 2t-26 6l-88 29q-18 5 -31.5 7.5t-23.5 2.5q-34 0 -55.5 -20t-31.5 -60h-104q25 104 75.5 155.5t127.5 51.5q15 0 31.5 -2.5t35.5 -7.5
l89 -27q12 -4 25 -6t24 -2q33 0 53 17t33 56h102z" />
    <glyph glyph-name="Ograve" unicode="&#xd2;" horiz-adv-x="1753" 
d="M1477 784q0 249 -155 403t-407 154q-126 0 -238.5 -46t-197.5 -132q-97 -98 -148.5 -224t-51.5 -263q0 -250 152.5 -402.5t402.5 -152.5q129 0 244 46t204 134q93 93 144 219.5t51 263.5zM924 1497q331 0 530 -194.5t199 -518.5q0 -174 -65 -328.5t-185 -269.5
q-113 -108 -265 -166.5t-323 -58.5q-318 0 -514.5 197.5t-196.5 515.5q0 178 63.5 334.5t180.5 269.5q111 106 259.5 162.5t316.5 56.5zM1085 1610h-108l-301 348h198z" />
    <glyph glyph-name="Oacute" unicode="&#xd3;" horiz-adv-x="1753" 
d="M1477 784q0 249 -155 403t-407 154q-126 0 -238.5 -46t-197.5 -132q-97 -98 -148.5 -224t-51.5 -263q0 -250 152.5 -402.5t402.5 -152.5q129 0 244 46t204 134q93 93 144 219.5t51 263.5zM924 1497q331 0 530 -194.5t199 -518.5q0 -174 -65 -328.5t-185 -269.5
q-113 -108 -265 -166.5t-323 -58.5q-318 0 -514.5 197.5t-196.5 515.5q0 178 63.5 334.5t180.5 269.5q111 106 259.5 162.5t316.5 56.5zM921 1610h-121l232 348h190z" />
    <glyph glyph-name="Ocircumflex" unicode="&#xd4;" horiz-adv-x="1753" 
d="M1477 784q0 249 -155 403t-407 154q-126 0 -238.5 -46t-197.5 -132q-97 -98 -148.5 -224t-51.5 -263q0 -250 152.5 -402.5t402.5 -152.5q129 0 244 46t204 134q93 93 144 219.5t51 263.5zM924 1497q331 0 530 -194.5t199 -518.5q0 -174 -65 -328.5t-185 -269.5
q-113 -108 -265 -166.5t-323 -58.5q-318 0 -514.5 197.5t-196.5 515.5q0 178 63.5 334.5t180.5 269.5q111 106 259.5 162.5t316.5 56.5zM1228 1610h-110l-133 219l-226 -219h-120l266 348h184z" />
    <glyph glyph-name="Otilde" unicode="&#xd5;" horiz-adv-x="1753" 
d="M1477 784q0 249 -155 403t-407 154q-126 0 -238.5 -46t-197.5 -132q-97 -98 -148.5 -224t-51.5 -263q0 -250 152.5 -402.5t402.5 -152.5q129 0 244 46t204 134q93 93 144 219.5t51 263.5zM924 1497q331 0 530 -194.5t199 -518.5q0 -174 -65 -328.5t-185 -269.5
q-113 -108 -265 -166.5t-323 -58.5q-318 0 -514.5 197.5t-196.5 515.5q0 178 63.5 334.5t180.5 269.5q111 106 259.5 162.5t316.5 56.5zM1269 1894q-28 -104 -78 -153t-128 -49q-17 0 -30 2t-26 6l-88 29q-18 5 -31.5 7.5t-23.5 2.5q-34 0 -55.5 -20t-31.5 -60h-104
q25 104 75.5 155.5t127.5 51.5q15 0 31.5 -2.5t35.5 -7.5l89 -27q12 -4 25 -6t24 -2q33 0 53 17t33 56h102z" />
    <glyph glyph-name="Odieresis" unicode="&#xd6;" horiz-adv-x="1753" 
d="M1477 784q0 249 -155 403t-407 154q-126 0 -238.5 -46t-197.5 -132q-97 -98 -148.5 -224t-51.5 -263q0 -250 152.5 -402.5t402.5 -152.5q129 0 244 46t204 134q93 93 144 219.5t51 263.5zM924 1497q331 0 530 -194.5t199 -518.5q0 -174 -65 -328.5t-185 -269.5
q-113 -108 -265 -166.5t-323 -58.5q-318 0 -514.5 197.5t-196.5 515.5q0 178 63.5 334.5t180.5 269.5q111 106 259.5 162.5t316.5 56.5zM1030 1774q0 41 32.5 74.5t73.5 33.5q44 0 75.5 -32t31.5 -76q0 -48 -30 -78.5t-77 -30.5q-45 0 -75.5 31t-30.5 78zM700 1774
q0 41 32.5 74.5t74.5 33.5q43 0 74.5 -32t31.5 -76q0 -48 -30 -78.5t-76 -30.5t-76.5 31t-30.5 78z" />
    <glyph glyph-name="multiply" unicode="&#xd7;" horiz-adv-x="1706" 
d="M858 692l475 477l82 -82l-475 -477l475 -475l-82 -82l-475 475l-477 -475l-80 82l475 475l-475 477l80 82z" />
    <glyph glyph-name="Oslash" unicode="&#xd8;" horiz-adv-x="1753" 
d="M1296 1212q-71 66 -167.5 100t-210.5 34q-127 0 -241 -47.5t-204 -137.5q-94 -94 -145.5 -221.5t-51.5 -267.5q0 -98 25.5 -183t75.5 -155zM453 246q67 -66 164.5 -103t205.5 -37q128 0 247.5 50t207.5 139q96 97 148.5 228t52.5 272q0 99 -27 183t-78 146zM61 31
l193 182q-74 88 -111 201.5t-37 251.5q0 179 63.5 335t182.5 269q116 110 265.5 167.5t318.5 57.5q149 0 271.5 -41.5t215.5 -124.5l176 168l84 -76l-184 -176q76 -88 115 -204.5t39 -256.5q0 -176 -64.5 -332.5t-183.5 -269.5q-116 -109 -265.5 -166t-320.5 -57
q-158 0 -279.5 43t-207.5 129l-191 -178z" />
    <glyph glyph-name="Ugrave" unicode="&#xd9;" horiz-adv-x="1417" 
d="M254 1464h178l-117 -891q-6 -48 -9 -80t-3 -51q0 -157 82.5 -240t239.5 -83q111 0 195.5 38t140.5 113q73 100 109 371q3 25 5 38l105 785h176l-109 -823v-1q-45 -345 -149 -476q-80 -100 -205 -153.5t-281 -53.5q-223 0 -355 112.5t-132 303.5q0 73 9.5 175t29.5 247z
M958 1610h-108l-301 348h198z" />
    <glyph glyph-name="Uacute" unicode="&#xda;" horiz-adv-x="1417" 
d="M254 1464h178l-117 -891q-6 -48 -9 -80t-3 -51q0 -157 82.5 -240t239.5 -83q111 0 195.5 38t140.5 113q73 100 109 371q3 25 5 38l105 785h176l-109 -823v-1q-45 -345 -149 -476q-80 -100 -205 -153.5t-281 -53.5q-223 0 -355 112.5t-132 303.5q0 73 9.5 175t29.5 247z
M794 1610h-121l232 348h190z" />
    <glyph glyph-name="Ucircumflex" unicode="&#xdb;" horiz-adv-x="1417" 
d="M254 1464h178l-117 -891q-6 -48 -9 -80t-3 -51q0 -157 82.5 -240t239.5 -83q111 0 195.5 38t140.5 113q73 100 109 371q3 25 5 38l105 785h176l-109 -823v-1q-45 -345 -149 -476q-80 -100 -205 -153.5t-281 -53.5q-223 0 -355 112.5t-132 303.5q0 73 9.5 175t29.5 247z
M1101 1610h-110l-133 219l-226 -219h-120l266 348h184z" />
    <glyph glyph-name="Udieresis" unicode="&#xdc;" horiz-adv-x="1417" 
d="M254 1464h178l-117 -891q-6 -48 -9 -80t-3 -51q0 -157 82.5 -240t239.5 -83q111 0 195.5 38t140.5 113q73 100 109 371q3 25 5 38l105 785h176l-109 -823v-1q-45 -345 -149 -476q-80 -100 -205 -153.5t-281 -53.5q-223 0 -355 112.5t-132 303.5q0 73 9.5 175t29.5 247z
M903 1774q0 41 32.5 74.5t73.5 33.5q44 0 75.5 -32t31.5 -76q0 -48 -30 -78.5t-77 -30.5q-45 0 -75.5 31t-30.5 78zM573 1774q0 41 32.5 74.5t74.5 33.5q43 0 74.5 -32t31.5 -76q0 -48 -30 -78.5t-76 -30.5t-76.5 31t-30.5 78z" />
    <glyph glyph-name="Yacute" unicode="&#xdd;" horiz-adv-x="1067" 
d="M338 0l84 639l-393 825h188l303 -663l420 663h199l-541 -827l-84 -637h-176zM620 1610h-121l232 348h190z" />
    <glyph glyph-name="Thorn" unicode="&#xde;" horiz-adv-x="1081" 
d="M315 504h148q98 0 146.5 7.5t84.5 25.5q67 31 104.5 95t37.5 148q0 129 -78.5 181.5t-298.5 52.5h-74zM295 348l-43 -348h-174l192 1464h174l-45 -293h66q195 0 275 -20t141 -68q64 -50 97.5 -126t33.5 -171q0 -110 -40 -197t-118 -147q-67 -50 -158 -72t-290 -22h-48
h-63z" />
    <glyph glyph-name="germandbls" unicode="&#xdf;" horiz-adv-x="1124" 
d="M80 0l104 780h-147l16 129h148l26 197q22 162 50 235.5t79 124.5q49 49 121 76t156 27q176 0 280.5 -100.5t104.5 -268.5q0 -146 -81 -243t-228 -130q141 -10 221 -111t80 -270q0 -209 -126.5 -346t-318.5 -137q-38 0 -82.5 7t-95.5 22l19 149q36 -17 72 -26t73 -9
q128 0 211.5 95t83.5 241q0 171 -87 254.5t-263 83.5h-33l18 129q13 -1 25.5 -1.5t38.5 -0.5q150 0 230.5 72t80.5 205q0 116 -61 178.5t-174 62.5q-111 0 -162 -67t-82 -314l-139 -1044h-158z" />
    <glyph glyph-name="agrave" unicode="&#xe0;" horiz-adv-x="1161" 
d="M504 109q134 0 226.5 111t92.5 276q0 139 -72.5 225t-189.5 86q-152 0 -249 -108t-97 -275q0 -141 80.5 -228t208.5 -87zM883 915h157l-120 -915h-160l22 137q-66 -89 -147.5 -131.5t-185.5 -42.5q-176 0 -286 128t-110 333q0 227 134 375.5t337 148.5q122 0 205 -54
t129 -163zM735 1059h-108l-301 348h198z" />
    <glyph glyph-name="aacute" unicode="&#xe1;" horiz-adv-x="1161" 
d="M504 109q134 0 226.5 111t92.5 276q0 139 -72.5 225t-189.5 86q-152 0 -249 -108t-97 -275q0 -141 80.5 -228t208.5 -87zM883 915h157l-120 -915h-160l22 137q-66 -89 -147.5 -131.5t-185.5 -42.5q-176 0 -286 128t-110 333q0 227 134 375.5t337 148.5q122 0 205 -54
t129 -163zM571 1059h-121l232 348h190z" />
    <glyph glyph-name="acircumflex" unicode="&#xe2;" horiz-adv-x="1161" 
d="M504 109q134 0 226.5 111t92.5 276q0 139 -72.5 225t-189.5 86q-152 0 -249 -108t-97 -275q0 -141 80.5 -228t208.5 -87zM883 915h157l-120 -915h-160l22 137q-66 -89 -147.5 -131.5t-185.5 -42.5q-176 0 -286 128t-110 333q0 227 134 375.5t337 148.5q122 0 205 -54
t129 -163zM878 1059h-110l-133 219l-226 -219h-120l266 348h184z" />
    <glyph glyph-name="atilde" unicode="&#xe3;" horiz-adv-x="1161" 
d="M504 109q134 0 226.5 111t92.5 276q0 139 -72.5 225t-189.5 86q-152 0 -249 -108t-97 -275q0 -141 80.5 -228t208.5 -87zM883 915h157l-120 -915h-160l22 137q-66 -89 -147.5 -131.5t-185.5 -42.5q-176 0 -286 128t-110 333q0 227 134 375.5t337 148.5q122 0 205 -54
t129 -163zM919 1343q-28 -104 -78 -153t-128 -49q-17 0 -30 2t-26 6l-88 29q-18 5 -31.5 7.5t-23.5 2.5q-34 0 -55.5 -20t-31.5 -60h-104q25 104 75.5 155.5t127.5 51.5q15 0 31.5 -2.5t35.5 -7.5l89 -27q12 -4 25 -6t24 -2q33 0 53 17t33 56h102z" />
    <glyph glyph-name="adieresis" unicode="&#xe4;" horiz-adv-x="1161" 
d="M504 109q134 0 226.5 111t92.5 276q0 139 -72.5 225t-189.5 86q-152 0 -249 -108t-97 -275q0 -141 80.5 -228t208.5 -87zM883 915h157l-120 -915h-160l22 137q-66 -89 -147.5 -131.5t-185.5 -42.5q-176 0 -286 128t-110 333q0 227 134 375.5t337 148.5q122 0 205 -54
t129 -163zM680 1223q0 41 32.5 74.5t73.5 33.5q44 0 75.5 -32t31.5 -76q0 -48 -30 -78.5t-77 -30.5q-45 0 -75.5 31t-30.5 78zM350 1223q0 41 32.5 74.5t74.5 33.5q43 0 74.5 -32t31.5 -76q0 -48 -30 -78.5t-76 -30.5t-76.5 31t-30.5 78z" />
    <glyph glyph-name="aring" unicode="&#xe5;" horiz-adv-x="1161" 
d="M492 1245q0 -52 36.5 -89.5t87.5 -37.5q53 0 90 37.5t37 89.5t-37 88.5t-90 36.5q-52 0 -88 -36t-36 -89zM383 1245q0 97 68.5 165.5t164.5 68.5q99 0 167.5 -68t68.5 -166q0 -97 -68.5 -165t-167.5 -68q-96 0 -164.5 68.5t-68.5 164.5zM883 915h157l-120 -915h-160
l22 137q-66 -89 -147.5 -131.5t-185.5 -42.5q-176 0 -286 128t-110 333q0 227 134 375.5t337 148.5q122 0 205 -54t129 -163zM504 109q134 0 226.5 111t92.5 276q0 139 -72.5 225t-189.5 86q-152 0 -249 -108t-97 -275q0 -141 80.5 -228t208.5 -87z" />
    <glyph glyph-name="ae" unicode="&#xe6;" horiz-adv-x="1706" 
d="M1618 433l-735 -1v-12q0 -150 75.5 -235t208.5 -85q81 0 148 39t129 121l110 -90q-81 -106 -178 -157.5t-215 -51.5q-133 0 -227 50.5t-148 150.5q-68 -100 -169.5 -149.5t-235.5 -49.5q-176 0 -273.5 75.5t-97.5 211.5q0 145 109.5 235t288.5 90q90 0 169 -25.5
t142 -75.5q5 36 7.5 67.5t2.5 60.5q0 102 -70 158.5t-196 56.5q-76 0 -148.5 -20t-142.5 -60v152q82 28 169 42.5t177 14.5q124 0 209.5 -46t118.5 -130q63 92 152.5 137t207.5 45q199 0 306.5 -116.5t107.5 -333.5q0 -28 -0.5 -42t-1.5 -27zM1464 561q-2 124 -67.5 191
t-184.5 67q-117 0 -202 -69.5t-111 -188.5h565zM688 270q0 77 -68 123.5t-182 46.5q-124 0 -194 -48.5t-70 -135.5q0 -74 62.5 -118t169.5 -44q133 0 207.5 47t74.5 129z" />
    <glyph glyph-name="ccedilla" unicode="&#xe7;" horiz-adv-x="948" 
d="M872 678q-71 72 -145.5 105.5t-161.5 33.5q-160 0 -261 -112t-101 -291q0 -144 87.5 -232t231.5 -88q70 0 137 28t148 93l-25 -172q-54 -40 -128.5 -61t-161.5 -21q-202 0 -326.5 125.5t-124.5 329.5q0 234 148.5 383t385.5 149q86 0 164.5 -23t155.5 -71zM162 -422
l37 98q79 -23 129.5 -34t81.5 -11q72 0 104.5 23.5t32.5 75.5q0 43 -40 61.5t-138 18.5h-23l66 190h78l-35 -102h22q105 0 159 -42t54 -124q0 -99 -64.5 -152t-185.5 -53q-47 0 -115 12.5t-163 38.5z" />
    <glyph glyph-name="egrave" unicode="&#xe8;" horiz-adv-x="1040" 
d="M934 431l-733 -1v-16q0 -147 75 -231.5t205 -84.5q81 0 149 39t132 121l110 -90q-80 -104 -176 -155.5t-209 -51.5q-205 0 -325.5 123.5t-120.5 333.5q0 229 140 379.5t351 150.5q192 0 298 -117t106 -329q0 -29 -0.5 -44t-1.5 -27zM782 561q-2 124 -67.5 191t-184.5 67
q-118 0 -203.5 -70t-111.5 -188h567zM678 1059h-108l-301 348h198z" />
    <glyph glyph-name="eacute" unicode="&#xe9;" horiz-adv-x="1040" 
d="M934 431l-733 -1v-16q0 -147 75 -231.5t205 -84.5q81 0 149 39t132 121l110 -90q-80 -104 -176 -155.5t-209 -51.5q-205 0 -325.5 123.5t-120.5 333.5q0 229 140 379.5t351 150.5q192 0 298 -117t106 -329q0 -29 -0.5 -44t-1.5 -27zM782 561q-2 124 -67.5 191t-184.5 67
q-118 0 -203.5 -70t-111.5 -188h567zM514 1059h-121l232 348h190z" />
    <glyph glyph-name="ecircumflex" unicode="&#xea;" horiz-adv-x="1040" 
d="M934 431l-733 -1v-16q0 -147 75 -231.5t205 -84.5q81 0 149 39t132 121l110 -90q-80 -104 -176 -155.5t-209 -51.5q-205 0 -325.5 123.5t-120.5 333.5q0 229 140 379.5t351 150.5q192 0 298 -117t106 -329q0 -29 -0.5 -44t-1.5 -27zM782 561q-2 124 -67.5 191t-184.5 67
q-118 0 -203.5 -70t-111.5 -188h567zM821 1059h-110l-133 219l-226 -219h-120l266 348h184z" />
    <glyph glyph-name="edieresis" unicode="&#xeb;" horiz-adv-x="1040" 
d="M934 431l-733 -1v-16q0 -147 75 -231.5t205 -84.5q81 0 149 39t132 121l110 -90q-80 -104 -176 -155.5t-209 -51.5q-205 0 -325.5 123.5t-120.5 333.5q0 229 140 379.5t351 150.5q192 0 298 -117t106 -329q0 -29 -0.5 -44t-1.5 -27zM782 561q-2 124 -67.5 191t-184.5 67
q-118 0 -203.5 -70t-111.5 -188h567zM623 1223q0 41 32.5 74.5t73.5 33.5q44 0 75.5 -32t31.5 -76q0 -48 -30 -78.5t-77 -30.5q-45 0 -75.5 31t-30.5 78zM293 1223q0 41 32.5 74.5t74.5 33.5q43 0 74.5 -32t31.5 -76q0 -48 -30 -78.5t-76 -30.5t-76.5 31t-30.5 78z" />
    <glyph glyph-name="igrave" unicode="&#xec;" horiz-adv-x="494" 
d="M72 0l121 915h159l-121 -915h-159zM424 1059h-108l-301 348h198z" />
    <glyph glyph-name="iacute" unicode="&#xed;" horiz-adv-x="494" 
d="M72 0l121 915h159l-121 -915h-159zM260 1059h-121l232 348h190z" />
    <glyph glyph-name="icircumflex" unicode="&#xee;" horiz-adv-x="494" 
d="M72 0l121 915h159l-121 -915h-159zM567 1059h-110l-133 219l-226 -219h-120l266 348h184z" />
    <glyph glyph-name="idieresis" unicode="&#xef;" horiz-adv-x="494" 
d="M72 0l121 915h159l-121 -915h-159zM369 1223q0 41 32.5 74.5t73.5 33.5q44 0 75.5 -32t31.5 -76q0 -48 -30 -78.5t-77 -30.5q-45 0 -75.5 31t-30.5 78zM39 1223q0 41 32.5 74.5t74.5 33.5q43 0 74.5 -32t31.5 -76q0 -48 -30 -78.5t-76 -30.5t-76.5 31t-30.5 78z" />
    <glyph glyph-name="eth" unicode="&#xf0;" horiz-adv-x="1128" 
d="M528 764q-140 0 -233.5 -102t-93.5 -254q0 -142 87 -232t224 -90q149 0 244.5 100.5t95.5 255.5q0 146 -88.5 234t-235.5 88zM899 701q-2 138 -31 259t-86 228l-305 -72l-31 101l271 63q-15 26 -48.5 60.5t-121.5 107.5l76 98q72 -49 132 -107.5t109 -127.5l248 57
l33 -96l-221 -53q58 -126 87 -261t29 -284q0 -349 -136 -531t-398 -182q-211 0 -338 120.5t-127 317.5q0 208 142 349t352 141q116 0 211 -49t153 -139z" />
    <glyph glyph-name="ntilde" unicode="&#xf1;" horiz-adv-x="1110" 
d="M66 0l120 915h152l-21 -149q77 93 161 137.5t184 44.5q131 0 207.5 -72t76.5 -196q0 -22 -2 -48t-6 -54l-76 -578h-160l72 561q1 7 2 19q6 49 6 65q0 82 -50 125t-146 43q-126 0 -203 -89.5t-100 -260.5l-62 -463h-155zM931 1343q-28 -104 -78 -153t-128 -49q-17 0 -30 2
t-26 6l-88 29q-18 5 -31.5 7.5t-23.5 2.5q-34 0 -55.5 -20t-31.5 -60h-104q25 104 75.5 155.5t127.5 51.5q15 0 31.5 -2.5t35.5 -7.5l89 -27q12 -4 25 -6t24 -2q33 0 53 17t33 56h102z" />
    <glyph glyph-name="ograve" unicode="&#xf2;" horiz-adv-x="1128" 
d="M549 819q-151 0 -249.5 -111.5t-98.5 -283.5q0 -151 85.5 -243.5t225.5 -92.5q150 0 248 111t98 282q0 148 -86.5 243t-222.5 95zM41 420q0 225 148 376.5t368 151.5q199 0 329 -125.5t130 -312.5q0 -244 -143.5 -396.5t-370.5 -152.5q-209 0 -335 126t-126 333z
M717 1059h-108l-301 348h198z" />
    <glyph glyph-name="oacute" unicode="&#xf3;" horiz-adv-x="1128" 
d="M549 819q-151 0 -249.5 -111.5t-98.5 -283.5q0 -151 85.5 -243.5t225.5 -92.5q150 0 248 111t98 282q0 148 -86.5 243t-222.5 95zM41 420q0 225 148 376.5t368 151.5q199 0 329 -125.5t130 -312.5q0 -244 -143.5 -396.5t-370.5 -152.5q-209 0 -335 126t-126 333z
M553 1059h-121l232 348h190z" />
    <glyph glyph-name="ocircumflex" unicode="&#xf4;" horiz-adv-x="1128" 
d="M549 819q-151 0 -249.5 -111.5t-98.5 -283.5q0 -151 85.5 -243.5t225.5 -92.5q150 0 248 111t98 282q0 148 -86.5 243t-222.5 95zM41 420q0 225 148 376.5t368 151.5q199 0 329 -125.5t130 -312.5q0 -244 -143.5 -396.5t-370.5 -152.5q-209 0 -335 126t-126 333z
M860 1059h-110l-133 219l-226 -219h-120l266 348h184z" />
    <glyph glyph-name="otilde" unicode="&#xf5;" horiz-adv-x="1128" 
d="M549 819q-151 0 -249.5 -111.5t-98.5 -283.5q0 -151 85.5 -243.5t225.5 -92.5q150 0 248 111t98 282q0 148 -86.5 243t-222.5 95zM41 420q0 225 148 376.5t368 151.5q199 0 329 -125.5t130 -312.5q0 -244 -143.5 -396.5t-370.5 -152.5q-209 0 -335 126t-126 333z
M901 1343q-28 -104 -78 -153t-128 -49q-17 0 -30 2t-26 6l-88 29q-18 5 -31.5 7.5t-23.5 2.5q-34 0 -55.5 -20t-31.5 -60h-104q25 104 75.5 155.5t127.5 51.5q15 0 31.5 -2.5t35.5 -7.5l89 -27q12 -4 25 -6t24 -2q33 0 53 17t33 56h102z" />
    <glyph glyph-name="odieresis" unicode="&#xf6;" horiz-adv-x="1128" 
d="M549 819q-151 0 -249.5 -111.5t-98.5 -283.5q0 -151 85.5 -243.5t225.5 -92.5q150 0 248 111t98 282q0 148 -86.5 243t-222.5 95zM41 420q0 225 148 376.5t368 151.5q199 0 329 -125.5t130 -312.5q0 -244 -143.5 -396.5t-370.5 -152.5q-209 0 -335 126t-126 333z
M662 1223q0 41 32.5 74.5t73.5 33.5q44 0 75.5 -32t31.5 -76q0 -48 -30 -78.5t-77 -30.5q-45 0 -75.5 31t-30.5 78zM332 1223q0 41 32.5 74.5t74.5 33.5q43 0 74.5 -32t31.5 -76q0 -48 -30 -78.5t-76 -30.5t-76.5 31t-30.5 78z" />
    <glyph glyph-name="divide" unicode="&#xf7;" horiz-adv-x="1706" 
d="M854 365q47 0 81 -34t34 -81t-33.5 -81t-81.5 -34t-81.5 33.5t-33.5 81.5t34 81.5t81 33.5zM1452 670v-117h-1198v117h1198zM854 1085q48 0 81.5 -33.5t33.5 -80.5q0 -48 -33.5 -81.5t-81.5 -33.5q-49 0 -82 33.5t-33 81.5q0 47 34 80.5t81 33.5z" />
    <glyph glyph-name="oslash" unicode="&#xf8;" horiz-adv-x="1128" 
d="M43 -55l-61 75l137 123q-40 65 -60 130t-20 130q0 236 148 389.5t376 153.5q98 0 176 -29.5t138 -89.5l131 121l71 -71l-139 -127q38 -54 57 -118t19 -140q0 -235 -146.5 -384t-375.5 -149q-95 0 -168 26t-142 85zM299 174q45 -42 94 -61t113 -19q151 0 250.5 107.5
t99.5 267.5q0 58 -9 100t-28 74zM762 727q-37 43 -87 63.5t-120 20.5q-153 0 -252.5 -107t-99.5 -274q0 -53 9 -96.5t28 -79.5z" />
    <glyph glyph-name="ugrave" unicode="&#xf9;" horiz-adv-x="1049" 
d="M178 915h160l-53 -405q-2 -16 -6 -46q-21 -153 -21 -202q0 -74 51 -115t144 -41q123 0 179 66t85 289l59 454h158l-62 -465q-1 -11 -4 -32q-33 -251 -120 -344q-52 -55 -129.5 -84t-174.5 -29q-157 0 -251.5 77.5t-94.5 205.5q0 49 23 232l2 14zM719 1059h-108l-301 348
h198z" />
    <glyph glyph-name="uacute" unicode="&#xfa;" horiz-adv-x="1049" 
d="M178 915h160l-53 -405q-2 -16 -6 -46q-21 -153 -21 -202q0 -74 51 -115t144 -41q123 0 179 66t85 289l59 454h158l-62 -465q-1 -11 -4 -32q-33 -251 -120 -344q-52 -55 -129.5 -84t-174.5 -29q-157 0 -251.5 77.5t-94.5 205.5q0 49 23 232l2 14zM555 1059h-121l232 348
h190z" />
    <glyph glyph-name="ucircumflex" unicode="&#xfb;" horiz-adv-x="1049" 
d="M178 915h160l-53 -405q-2 -16 -6 -46q-21 -153 -21 -202q0 -74 51 -115t144 -41q123 0 179 66t85 289l59 454h158l-62 -465q-1 -11 -4 -32q-33 -251 -120 -344q-52 -55 -129.5 -84t-174.5 -29q-157 0 -251.5 77.5t-94.5 205.5q0 49 23 232l2 14zM862 1059h-110l-133 219
l-226 -219h-120l266 348h184z" />
    <glyph glyph-name="udieresis" unicode="&#xfc;" horiz-adv-x="1049" 
d="M178 915h160l-53 -405q-2 -16 -6 -46q-21 -153 -21 -202q0 -74 51 -115t144 -41q123 0 179 66t85 289l59 454h158l-62 -465q-1 -11 -4 -32q-33 -251 -120 -344q-52 -55 -129.5 -84t-174.5 -29q-157 0 -251.5 77.5t-94.5 205.5q0 49 23 232l2 14zM664 1223q0 41 32.5 74.5
t73.5 33.5q44 0 75.5 -32t31.5 -76q0 -48 -30 -78.5t-77 -30.5q-45 0 -75.5 31t-30.5 78zM334 1223q0 41 32.5 74.5t74.5 33.5q43 0 74.5 -32t31.5 -76q0 -48 -30 -78.5t-76 -30.5t-76.5 31t-30.5 78z" />
    <glyph glyph-name="yacute" unicode="&#xfd;" horiz-adv-x="952" 
d="M-12 -446l319 546l-250 815h170l189 -653l356 653h182l-788 -1361h-178zM489 1059h-121l232 348h190z" />
    <glyph glyph-name="thorn" unicode="&#xfe;" horiz-adv-x="1161" 
d="M590 799q-135 0 -227.5 -110.5t-92.5 -274.5q0 -139 72.5 -223.5t189.5 -84.5q153 0 250 106.5t97 272.5q0 140 -80.5 227t-208.5 87zM242 180l-82 -626h-164l264 1996h162l-109 -778q62 88 145 132t187 44q172 0 283.5 -129t111.5 -330q0 -223 -133.5 -373.5
t-333.5 -150.5q-123 0 -205 53.5t-126 161.5z" />
    <glyph glyph-name="ydieresis" unicode="&#xff;" horiz-adv-x="952" 
d="M-12 -446l319 546l-250 815h170l189 -653l356 653h182l-788 -1361h-178zM598 1223q0 41 32.5 74.5t73.5 33.5q44 0 75.5 -32t31.5 -76q0 -48 -30 -78.5t-77 -30.5q-45 0 -75.5 31t-30.5 78zM268 1223q0 41 32.5 74.5t74.5 33.5q43 0 74.5 -32t31.5 -76q0 -48 -30 -78.5
t-76 -30.5t-76.5 31t-30.5 78z" />
    <glyph glyph-name="Cacute" unicode="&#x106;" horiz-adv-x="1374" 
d="M1303 1159q-103 93 -206 137.5t-214 44.5q-121 0 -227 -44t-185 -128q-91 -96 -138.5 -219t-47.5 -260q0 -263 145 -416t395 -153q97 0 193.5 33t204.5 104l-39 -205q-88 -46 -184.5 -69t-202.5 -23q-309 0 -502 199.5t-193 517.5q0 176 62.5 331.5t179.5 272.5
q105 105 242 160t295 55q136 0 251.5 -39.5t217.5 -122.5zM876 1610h-121l232 348h190z" />
    <glyph glyph-name="cacute" unicode="&#x107;" horiz-adv-x="948" 
d="M872 678q-71 72 -145.5 105.5t-161.5 33.5q-160 0 -261 -112t-101 -291q0 -144 87.5 -232t231.5 -88q70 0 137 28t148 93l-25 -172q-54 -40 -128.5 -61t-161.5 -21q-202 0 -326.5 125.5t-124.5 329.5q0 234 148.5 383t385.5 149q86 0 164.5 -23t155.5 -71zM553 1059h-121
l232 348h190z" />
    <glyph glyph-name="Ccaron" unicode="&#x10c;" horiz-adv-x="1374" 
d="M1303 1159q-103 93 -206 137.5t-214 44.5q-121 0 -227 -44t-185 -128q-91 -96 -138.5 -219t-47.5 -260q0 -263 145 -416t395 -153q97 0 193.5 33t204.5 104l-39 -205q-88 -46 -184.5 -69t-202.5 -23q-309 0 -502 199.5t-193 517.5q0 176 62.5 331.5t179.5 272.5
q105 105 242 160t295 55q136 0 251.5 -39.5t217.5 -122.5zM661 1958h111l133 -217l225 217h121l-266 -348h-184z" />
    <glyph glyph-name="ccaron" unicode="&#x10d;" horiz-adv-x="948" 
d="M872 678q-71 72 -145.5 105.5t-161.5 33.5q-160 0 -261 -112t-101 -291q0 -144 87.5 -232t231.5 -88q70 0 137 28t148 93l-25 -172q-54 -40 -128.5 -61t-161.5 -21q-202 0 -326.5 125.5t-124.5 329.5q0 234 148.5 383t385.5 149q86 0 164.5 -23t155.5 -71zM338 1407h111
l133 -217l225 217h121l-266 -348h-184z" />
    <glyph glyph-name="dcroat" unicode="&#x111;" horiz-adv-x="1169" 
d="M500 109q133 0 226 111t93 276q0 140 -72.5 225.5t-189.5 85.5q-152 0 -248 -108t-96 -275q0 -141 79.5 -228t207.5 -87zM909 1159h-346l17 125h346l35 266h159l-35 -266h236l-16 -125h-236l-154 -1159h-159l22 137q-67 -90 -147.5 -132t-186.5 -42q-175 0 -285 128
t-110 333q0 226 134 375t337 149q122 0 204 -53.5t130 -163.5z" />
    <glyph glyph-name="Gbreve" unicode="&#x11e;" horiz-adv-x="1651" 
d="M930 717h618v-10q0 -345 -197 -545.5t-536 -200.5q-325 0 -519 194.5t-194 518.5q0 177 64.5 334t183.5 272q113 108 255.5 163.5t305.5 55.5q207 0 360.5 -72t274.5 -225l-131 -117q-103 131 -226 193.5t-276 62.5q-274 0 -453 -191t-179 -484q0 -249 153 -400t404 -151
q209 0 359 127t171 323h-459zM703 1925h102v-18q0 -66 34 -94.5t111 -28.5q88 0 143.5 34t86.5 107h106q-40 -141 -126.5 -211.5t-219.5 -70.5q-118 0 -179 59t-61 174q0 20 0.5 30t2.5 19z" />
    <glyph glyph-name="gbreve" unicode="&#x11f;" horiz-adv-x="1161" 
d="M504 121q133 0 226 110t93 273q0 138 -72.5 222.5t-189.5 84.5q-152 0 -249 -106t-97 -271q0 -139 80.5 -226t208.5 -87zM883 915h157l-92 -727q-3 -22 -8 -63q-33 -272 -92 -369q-62 -103 -157.5 -149.5t-248.5 -46.5q-183 0 -293.5 101t-113.5 271l157 21
q4 -126 78.5 -194t208.5 -68q121 0 195.5 83.5t91.5 237.5l16 140q-66 -89 -147.5 -132t-185.5 -43q-173 0 -284.5 125.5t-111.5 321.5q0 226 134.5 375t336.5 149q122 0 206 -53.5t128 -159.5zM386 1374h102v-18q0 -66 34 -94.5t111 -28.5q88 0 143.5 34t86.5 107h106
q-40 -141 -126.5 -211.5t-219.5 -70.5q-118 0 -179 59t-61 174q0 20 0.5 30t2.5 19z" />
    <glyph glyph-name="Idotaccent" unicode="&#x130;" horiz-adv-x="541" 
d="M84 0l192 1464h183l-193 -1464h-182zM289 1774q0 44 34 79t78 35q47 0 81 -34t34 -80q0 -49 -32.5 -81t-82.5 -32q-46 0 -79 33t-33 80z" />
    <glyph glyph-name="dotlessi" unicode="&#x131;" horiz-adv-x="494" 
d="M72 0l121 915h159l-121 -915h-159z" />
    <glyph glyph-name="Lslash" unicode="&#x141;" horiz-adv-x="907" 
d="M96 0l84 637l-170 -100l-69 125l262 155l86 647h176l-74 -559l258 152l74 -123l-354 -209l-74 -563h524l-20 -162h-703z" />
    <glyph glyph-name="lslash" unicode="&#x142;" horiz-adv-x="530" 
d="M365 862l149 86l61 -104l-233 -135l-92 -709h-160l82 631l-149 -86l-62 104l232 135l100 766h162z" />
    <glyph glyph-name="OE" unicode="&#x152;" horiz-adv-x="2300" 
d="M1448 799q0 244 -152.5 397.5t-396.5 153.5q-122 0 -232 -47t-192 -134q-92 -97 -143 -228t-51 -271q0 -243 151 -397t389 -154q127 0 237.5 46.5t194.5 135.5q94 98 144.5 227t50.5 271zM1395 236q-92 -131 -249 -205t-341 -74q-313 0 -506 198t-193 521q0 178 62 333.5
t178 270.5q113 111 262 170t316 59q204 0 357.5 -85.5t225.5 -239.5l39 280h740l-21 -155h-569l-60 -441h570l-21 -155h-569l-72 -557h594l-20 -156h-764z" />
    <glyph glyph-name="oe" unicode="&#x153;" horiz-adv-x="1849" 
d="M1591 561q-1 123 -68 190.5t-188 67.5q-120 0 -208 -70t-113 -188h577zM1745 429l-733 -1v-27q0 -140 75.5 -222.5t204.5 -82.5q81 0 149 39t130 121l110 -90q-79 -104 -175 -155.5t-210 -51.5q-133 0 -230.5 51.5t-152.5 151.5q-73 -99 -177.5 -151t-231.5 -52
q-209 0 -336 126.5t-127 334.5q0 226 147.5 376t370.5 150q128 0 226 -52t161 -155q71 103 172 156t225 53q192 0 298 -117.5t106 -330.5q0 -29 -0.5 -44t-1.5 -27zM549 807q-148 0 -245 -107.5t-97 -273.5q0 -147 84 -237.5t221 -90.5q147 0 243.5 108.5t96.5 274.5
q0 143 -85 234.5t-218 91.5z" />
    <glyph glyph-name="Scedilla" unicode="&#x15e;" horiz-adv-x="1036" 
d="M-10 268l129 109q60 -139 132.5 -199.5t176.5 -60.5q133 0 213 77t80 205q0 80 -38.5 133t-190.5 136q-196 107 -263 193.5t-67 209.5q0 188 121 308t313 120q127 0 222.5 -55.5t168.5 -171.5l-127 -109q-48 93 -112 138t-148 45q-116 0 -188 -69.5t-72 -178.5
q0 -146 223 -265q39 -21 60 -32q157 -89 215.5 -177t58.5 -221q0 -203 -125 -322.5t-340 -119.5q-157 0 -269 78t-173 229zM127 -422l37 98q79 -23 129.5 -34t81.5 -11q72 0 104.5 23.5t32.5 75.5q0 43 -40 61.5t-138 18.5h-23l66 190h78l-35 -102h22q105 0 159 -42t54 -124
q0 -99 -64.5 -152t-185.5 -53q-47 0 -115 12.5t-163 38.5z" />
    <glyph glyph-name="scedilla" unicode="&#x15f;" horiz-adv-x="840" 
d="M-4 133l102 121q50 -81 113.5 -121.5t140.5 -40.5q86 0 136.5 39.5t50.5 106.5q0 75 -142 140q-36 17 -57 28q-131 63 -174 117t-43 136q0 126 93 207.5t239 81.5q92 0 170 -34t141 -101l-96 -115q-42 56 -99 84.5t-127 28.5q-69 0 -117 -39.5t-48 -93.5q0 -74 170 -147
l16 -7q135 -58 181 -115t46 -149q0 -139 -90 -219t-246 -80q-116 0 -204 42t-156 130zM29 -422l37 98q79 -23 129.5 -34t81.5 -11q72 0 104.5 23.5t32.5 75.5q0 43 -40 61.5t-138 18.5h-23l66 190h78l-35 -102h22q105 0 159 -42t54 -124q0 -99 -64.5 -152t-185.5 -53
q-47 0 -115 12.5t-163 38.5z" />
    <glyph glyph-name="Scaron" unicode="&#x160;" horiz-adv-x="1036" 
d="M-10 268l129 109q60 -139 132.5 -199.5t176.5 -60.5q133 0 213 77t80 205q0 80 -38.5 133t-190.5 136q-196 107 -263 193.5t-67 209.5q0 188 121 308t313 120q127 0 222.5 -55.5t168.5 -171.5l-127 -109q-48 93 -112 138t-148 45q-116 0 -188 -69.5t-72 -178.5
q0 -146 223 -265q39 -21 60 -32q157 -89 215.5 -177t58.5 -221q0 -203 -125 -322.5t-340 -119.5q-157 0 -269 78t-173 229zM389 1958h111l133 -217l225 217h121l-266 -348h-184z" />
    <glyph glyph-name="scaron" unicode="&#x161;" horiz-adv-x="840" 
d="M-4 133l102 121q50 -81 113.5 -121.5t140.5 -40.5q86 0 136.5 39.5t50.5 106.5q0 75 -142 140q-36 17 -57 28q-131 63 -174 117t-43 136q0 126 93 207.5t239 81.5q92 0 170 -34t141 -101l-96 -115q-42 56 -99 84.5t-127 28.5q-69 0 -117 -39.5t-48 -93.5q0 -74 170 -147
l16 -7q135 -58 181 -115t46 -149q0 -139 -90 -219t-246 -80q-116 0 -204 42t-156 130zM217 1407h111l133 -217l225 217h121l-266 -348h-184z" />
    <glyph glyph-name="Ydieresis" unicode="&#x178;" horiz-adv-x="1067" 
d="M338 0l84 639l-393 825h188l303 -663l420 663h199l-541 -827l-84 -637h-176zM729 1774q0 41 32.5 74.5t73.5 33.5q44 0 75.5 -32t31.5 -76q0 -48 -30 -78.5t-77 -30.5q-45 0 -75.5 31t-30.5 78zM399 1774q0 41 32.5 74.5t74.5 33.5q43 0 74.5 -32t31.5 -76
q0 -48 -30 -78.5t-76 -30.5t-76.5 31t-30.5 78z" />
    <glyph glyph-name="Zcaron" unicode="&#x17d;" horiz-adv-x="1143" 
d="M-45 0v37l915 1270h-725l21 157h981v-37l-914 -1273h789l-21 -154h-1046zM442 1958h111l133 -217l225 217h121l-266 -348h-184z" />
    <glyph glyph-name="zcaron" unicode="&#x17e;" horiz-adv-x="883" 
d="M-25 0l592 782h-471l19 133h719l-574 -774h473l-18 -141h-740zM239 1407h111l133 -217l225 217h121l-266 -348h-184z" />
    <glyph glyph-name="florin" unicode="&#x192;" horiz-adv-x="1180" 
d="M498 805h-168l16 131h168l18 164q25 201 90 290t187 89q38 0 75 -8.5t77 -24.5l-17 -141q-44 17 -69 23.5t-44 6.5q-63 0 -95 -54.5t-50 -201.5l-16 -143h200l-14 -131h-201l-92 -780q-34 -290 -100.5 -384t-208.5 -94q-20 0 -46.5 4t-53.5 11l34 137q17 -4 32.5 -6
t31.5 -2q116 0 155 340q4 36 7 55z" />
    <glyph glyph-name="circumflex" unicode="&#x2c6;" 
d="M831 1059h-110l-133 219l-226 -219h-120l266 348h184z" />
    <glyph glyph-name="caron" unicode="&#x2c7;" 
d="M309 1407h111l133 -217l225 217h121l-266 -348h-184z" />
    <glyph glyph-name="breve" unicode="&#x2d8;" 
d="M316 1374h102v-18q0 -66 34 -94.5t111 -28.5q88 0 143.5 34t86.5 107h106q-40 -141 -126.5 -211.5t-219.5 -70.5q-118 0 -179 59t-61 174q0 20 0.5 30t2.5 19z" />
    <glyph glyph-name="dotaccent" unicode="&#x2d9;" 
d="M457 1223q0 44 34 79t78 35q47 0 81 -34t34 -80q0 -49 -32.5 -81t-82.5 -32q-46 0 -79 33t-33 80z" />
    <glyph glyph-name="ring" unicode="&#x2da;" 
d="M446 1292q0 -60 41 -100.5t101 -40.5t100.5 40.5t40.5 100.5t-41.5 102t-99.5 42q-60 0 -101 -41.5t-41 -102.5zM336 1294q0 106 73 179t179 73t180 -73t74 -179t-74 -180t-180 -74t-179 74t-73 180z" />
    <glyph glyph-name="ogonek" unicode="&#x2db;" 
d="M483 0q-71 -63 -104 -116.5t-33 -104.5q0 -43 21 -60.5t75 -17.5h90l-18 -143h-74q-113 0 -169 42t-56 126q0 66 43.5 130.5t142.5 143.5h82z" />
    <glyph glyph-name="tilde" unicode="&#x2dc;" 
d="M872 1343q-28 -104 -78 -153t-128 -49q-17 0 -30 2t-26 6l-88 29q-18 5 -31.5 7.5t-23.5 2.5q-34 0 -55.5 -20t-31.5 -60h-104q25 104 75.5 155.5t127.5 51.5q15 0 31.5 -2.5t35.5 -7.5l89 -27q12 -4 25 -6t24 -2q33 0 53 17t33 56h102z" />
    <glyph glyph-name="hungarumlaut" unicode="&#x2dd;" 
d="M795 1409h168l-252 -348h-99zM512 1409h168l-223 -348h-99z" />
    <glyph glyph-name="Omega" unicode="&#x3a9;" horiz-adv-x="1573" 
d="M1473 156v-156h-590v150q193 111 296 279t103 374q0 251 -137 405t-359 154q-221 0 -359 -155t-138 -404q0 -205 103 -373.5t298 -279.5v-150h-590v156h332q-164 133 -242.5 285t-78.5 335q0 329 188.5 533t486.5 204q299 0 487.5 -202.5t188.5 -530.5
q0 -186 -78.5 -338.5t-242.5 -285.5h332z" />
    <glyph glyph-name="pi" unicode="&#x3c0;" horiz-adv-x="1186" 
d="M1139 930h-185l-110 -516q-14 -66 -21.5 -114.5t-7.5 -74.5q0 -57 24 -81.5t81 -24.5q21 0 46 2.5t52 7.5l-29 -129l-5 -1q-64 -15 -99 -15q-110 0 -168 51.5t-58 150.5q0 48 11.5 121t44.5 230l84 393h-348l-197 -930h-158l197 930h-39q-55 0 -84.5 -31t-40.5 -100h-145
q26 153 94 211.5t223 58.5h866z" />
    <glyph glyph-name="endash" unicode="&#x2013;" 
d="M-27 514h1022l-14 -119h-1022z" />
    <glyph glyph-name="emdash" unicode="&#x2014;" horiz-adv-x="2048" 
d="M-41 395l14 119h2048l-14 -119h-2048z" />
    <glyph glyph-name="quoteleft" unicode="&#x2018;" horiz-adv-x="590" 
d="M561 1434l-262 -488l-145 92l307 459z" />
    <glyph glyph-name="quoteright" unicode="&#x2019;" horiz-adv-x="590" 
d="M143 1010l263 487l145 -92l-307 -459z" />
    <glyph glyph-name="quotesinglbase" unicode="&#x201a;" horiz-adv-x="590" 
d="M-49 -213l262 489l147 -92l-309 -460z" />
    <glyph glyph-name="quotedblleft" unicode="&#x201c;" horiz-adv-x="948" 
d="M928 1434l-262 -488l-148 92l309 459zM559 1434l-262 -488l-147 92l309 459z" />
    <glyph glyph-name="quotedblright" unicode="&#x201d;" horiz-adv-x="948" 
d="M141 1010l262 487l148 -92l-309 -459zM508 1010l262 487l148 -92l-310 -459z" />
    <glyph glyph-name="quotedblbase" unicode="&#x201e;" horiz-adv-x="948" 
d="M-45 -213l262 489l148 -92l-310 -460zM324 -213l262 489l145 -92l-309 -460z" />
    <glyph glyph-name="dagger" unicode="&#x2020;" horiz-adv-x="1090" 
d="M311 -446l160 1212h-401l18 137h401l74 561h158l-74 -561h402l-19 -137h-401l-160 -1212h-158z" />
    <glyph glyph-name="daggerdbl" unicode="&#x2021;" horiz-adv-x="1090" 
d="M311 -446l70 530h-401l16 127h401l80 606h-401l16 129h402l69 518h158l-70 -518h402l-17 -129h-401l-80 -606h401l-16 -127h-401l-70 -530h-158z" />
    <glyph glyph-name="bullet" unicode="&#x2022;" horiz-adv-x="1208" 
d="M307 762q0 123 87 209t210 86q122 0 208.5 -86.5t86.5 -208.5t-87.5 -209.5t-209.5 -87.5q-123 0 -209 87t-86 210z" />
    <glyph glyph-name="ellipsis" unicode="&#x2026;" horiz-adv-x="2048" 
d="M141 94q0 48 33.5 81.5t81.5 33.5t81.5 -33.5t33.5 -81.5t-33 -80t-82 -32t-82 32t-33 80zM823 94q0 48 33.5 81.5t81.5 33.5t81.5 -33.5t33.5 -81.5t-33 -80t-82 -32t-82 32t-33 80zM1507 94q0 48 33.5 81.5t81.5 33.5t81.5 -33.5t33.5 -81.5t-33 -80t-82 -32t-82 32
t-33 80z" />
    <glyph glyph-name="perthousand" unicode="&#x2030;" horiz-adv-x="2200" 
d="M1663 233q0 -93 30 -137.5t93 -44.5q93 0 148 107.5t55 292.5q0 92 -30 135t-93 43q-90 0 -146.5 -109t-56.5 -287zM1864 723q127 0 192.5 -80t65.5 -235q0 -194 -93 -323.5t-225 -129.5q-136 0 -203 77.5t-67 235.5q0 200 93.5 327.5t236.5 127.5zM944 233
q0 -93 30.5 -137.5t94.5 -44.5q93 0 148 107.5t55 292.5q0 91 -30.5 134.5t-94.5 43.5q-90 0 -146.5 -109t-56.5 -287zM1145 723q127 0 193.5 -80t66.5 -235q0 -194 -93 -323.5t-225 -129.5q-137 0 -204.5 78t-67.5 235q0 200 93.5 327.5t236.5 127.5zM207 993
q0 -94 29.5 -138t93.5 -44q92 0 147 108t55 293q0 92 -29.5 134.5t-92.5 42.5q-90 0 -146.5 -109.5t-56.5 -286.5zM406 1483q128 0 194 -79.5t66 -234.5q0 -193 -93 -322.5t-225 -129.5q-138 0 -205 77t-67 234q0 200 93.5 327.5t236.5 127.5zM270 -39l824 1518h100
l-823 -1518h-101z" />
    <glyph glyph-name="guilsinglleft" unicode="&#x2039;" horiz-adv-x="573" 
d="M397 862l84 -86l-295 -323l213 -338l-98 -68l-260 414z" />
    <glyph glyph-name="guilsinglright" unicode="&#x203a;" horiz-adv-x="573" 
d="M102 47l-82 86l295 324l-213 338l99 67l260 -413z" />
    <glyph glyph-name="franc" unicode="&#x20a3;" horiz-adv-x="1712" 
d="M76 0l192 1464h756l-23 -159h-577l-57 -437h577l-20 -157h-578l-94 -711h-176zM1659 766q-26 13 -53 20t-54 7q-105 0 -166.5 -88t-86.5 -273l-58 -432h-155l120 915h158l-25 -145q63 93 127.5 135.5t141.5 42.5q22 0 45.5 -5t46.5 -15z" />
    <glyph glyph-name="trademark" unicode="&#x2122;" horiz-adv-x="1706" 
d="M948 1456l160 -405l149 405h132v-534h-82v458l-172 -458h-54l-180 458v-458h-82v534h129zM694 1456v-67h-172v-467h-94v467h-174v67h440z" />
    <glyph glyph-name="partialdiff" unicode="&#x2202;" horiz-adv-x="1044" 
d="M754 604q13 81 19.5 161.5t6.5 158.5q0 140 -39.5 216.5t-111.5 76.5q-53 0 -117 -63.5t-109 -63.5q-29 0 -51 21.5t-22 51.5q0 59 68 105.5t163 46.5q171 0 273 -152.5t102 -412.5q0 -335 -139 -555t-344 -220q-147 0 -241.5 106.5t-94.5 272.5q0 189 108.5 316
t266.5 127q99 0 162.5 -47t99.5 -146zM709 483q0 117 -45 180.5t-127 63.5q-113 0 -184.5 -127.5t-71.5 -333.5q0 -117 44 -178t128 -61q111 0 183.5 128t72.5 328z" />
    <glyph glyph-name="Delta" unicode="&#x2206;" horiz-adv-x="1356" 
d="M1122 158l-444 1138l-445 -1138h889zM780 1473l586 -1473h-1374l586 1473h202z" />
    <glyph glyph-name="product" unicode="&#x220f;" horiz-adv-x="1528" 
d="M160 1473h1208v-1866h-201v1693h-809v-1693h-198v1866z" />
    <glyph glyph-name="summation" unicode="&#x2211;" horiz-adv-x="1346" 
d="M51 1473h1239v-166h-989l690 -744l-719 -792h1035v-164h-1289v139l738 813l-705 758v156z" />
    <glyph glyph-name="minus" unicode="&#x2212;" horiz-adv-x="1706" 
d="M1452 670v-119h-1198v119h1198z" />
    <glyph glyph-name="fraction" unicode="&#x2215;" horiz-adv-x="342" 
d="M-342 -39l915 1518h109l-913 -1518h-111z" />
    <glyph glyph-name="periodcentered" unicode="&#x2219;" horiz-adv-x="590" 
d="M186 719q0 47 33.5 81t81.5 34t81.5 -34t33.5 -81q0 -48 -33 -80.5t-82 -32.5t-82 32.5t-33 80.5z" />
    <glyph glyph-name="radical" unicode="&#x221a;" horiz-adv-x="1288" 
d="M1288 1647v-82h-119l-594 -1606h-53l-323 893l-119 -43l-23 68l262 92l265 -729l522 1407h182z" />
    <glyph glyph-name="infinity" unicode="&#x221e;" horiz-adv-x="1706" 
d="M905 559q51 -95 119 -141.5t156 -46.5q102 0 168.5 71t66.5 181q0 108 -61 179.5t-152 71.5q-85 0 -153.5 -72.5t-143.5 -242.5zM803 666q-51 95 -119 142.5t-154 47.5q-105 0 -171 -71t-66 -183q0 -108 61 -179t152 -71q85 0 152 69t145 245zM840 727q67 138 146 204
t175 66q134 0 226 -108.5t92 -272.5q0 -171 -82 -277t-213 -106q-96 0 -169 60t-149 201q-71 -138 -148 -201.5t-173 -63.5q-134 0 -226 109t-92 272q0 172 82.5 277.5t214.5 105.5q97 0 172 -63t144 -203z" />
    <glyph glyph-name="integral" unicode="&#x222b;" horiz-adv-x="1020" 
d="M301 -268q103 0 116 664q3 141 5 216q12 503 102 719.5t281 216.5q76 0 122 -39t46 -104q0 -48 -31 -77.5t-82 -29.5q-53 0 -85 35t-32 92q0 8 -6 15.5t-14 7.5q-105 0 -119 -634q-3 -157 -6 -245q-10 -308 -31.5 -461t-62.5 -247q-49 -114 -123 -173t-168 -59
q-73 0 -119.5 38t-46.5 97q0 53 31.5 84t83.5 31q47 0 79.5 -29t32.5 -67q0 -24 7.5 -37.5t19.5 -13.5z" />
    <glyph glyph-name="approxequal" unicode="&#x2248;" horiz-adv-x="1706" 
d="M1530 453q-107 -75 -202 -110.5t-187 -35.5q-98 0 -288 69.5t-290 69.5q-82 0 -169.5 -35.5t-215.5 -123.5v131q106 73 202 109t185 36q111 0 301.5 -68.5t276.5 -68.5q85 0 173.5 35.5t213.5 122.5v-131zM1530 803q-104 -73 -200 -108.5t-187 -35.5q-100 0 -290 69
t-290 69q-83 0 -171.5 -36t-213.5 -122v131q106 73 202 109t185 36q111 0 300.5 -68.5t277.5 -68.5q87 0 175 35t212 121v-131z" />
    <glyph glyph-name="notequal" unicode="&#x2260;" horiz-adv-x="1706" 
d="M1298 1110l-196 -250h350v-115h-424l-211 -270h635v-115h-709l-251 -319l-89 70l197 249h-346v115h420l211 270h-631v115h704l252 320z" />
    <glyph glyph-name="lessequal" unicode="&#x2264;" horiz-adv-x="1706" 
d="M1444 150v-117h-1182v117h1182zM1444 1067l-977 -324l977 -323v-125l-1182 399v101l1182 397v-125z" />
    <glyph glyph-name="greaterequal" unicode="&#x2265;" horiz-adv-x="1706" 
d="M1444 150v-117h-1182v117h1182zM1444 795v-101l-1182 -399v125l979 323l-979 324v125z" />
    <glyph glyph-name="lozenge" unicode="&#x25ca;" horiz-adv-x="1012" 
d="M506 1409l-385 -817l385 -825l385 825zM506 1653l500 -1061l-500 -1069l-500 1069z" />
    <glyph glyph-name="apple" unicode="&#xf000;" horiz-adv-x="1618" 
d="M836 1216q-1 6 -1.5 14t-0.5 23q0 124 95 229.5t236 131.5q1 -10 1.5 -23t0.5 -39q0 -131 -103.5 -234.5t-203.5 -103.5h-8q-3 0 -7.5 1t-8.5 1zM1505 403q-114 -247 -205 -342.5t-204 -95.5q-50 0 -131.5 33t-122.5 33q-45 0 -131 -33t-127 -33q-64 0 -128.5 44
t-129.5 132q-102 140 -157.5 295.5t-55.5 300.5q0 219 125 356.5t323 137.5q68 0 155 -34t124 -34q34 0 121.5 35t152.5 35q110 0 198 -40t161 -124q-102 -65 -151.5 -145.5t-49.5 -182.5q0 -113 60 -200t173 -138z" />
    <glyph glyph-name="fi" unicode="&#xf001;" horiz-adv-x="1114" 
d="M825 1348q0 45 31.5 76.5t77.5 31.5q45 0 76.5 -31.5t31.5 -76.5q0 -47 -31 -79t-77 -32q-45 0 -77 32.5t-32 78.5zM692 0l121 915h160l-121 -915h-160zM127 0l102 782h-168l17 133h170l35 269q29 222 90.5 303.5t189.5 81.5q39 0 74.5 -8.5t71.5 -26.5l-27 -139
q-43 19 -66 25.5t-41 6.5q-56 0 -83 -42t-46 -185l-38 -285h202l-18 -133h-201l-102 -782h-162z" />
    <glyph glyph-name="fi" unicode="&#xfb01;" horiz-adv-x="1114" 
d="M825 1348q0 45 31.5 76.5t77.5 31.5q45 0 76.5 -31.5t31.5 -76.5q0 -47 -31 -79t-77 -32q-45 0 -77 32.5t-32 78.5zM692 0l121 915h160l-121 -915h-160zM127 0l102 782h-168l17 133h170l35 269q29 222 90.5 303.5t189.5 81.5q39 0 74.5 -8.5t71.5 -26.5l-27 -139
q-43 19 -66 25.5t-41 6.5q-56 0 -83 -42t-46 -185l-38 -285h202l-18 -133h-201l-102 -782h-162z" />
    <glyph glyph-name="fl" unicode="&#xf002;" horiz-adv-x="1114" 
d="M852 0h-160l203 1550h162zM127 0l102 782h-168l17 133h170l35 269q29 222 90.5 303.5t189.5 81.5q39 0 74.5 -8.5t71.5 -26.5l-27 -139q-43 19 -66 25.5t-41 6.5q-56 0 -83 -42t-46 -185l-38 -285h202l-18 -133h-201l-102 -782h-162z" />
    <glyph glyph-name="fl" unicode="&#xfb02;" horiz-adv-x="1114" 
d="M852 0h-160l203 1550h162zM127 0l102 782h-168l17 133h170l35 269q29 222 90.5 303.5t189.5 81.5q39 0 74.5 -8.5t71.5 -26.5l-27 -139q-43 19 -66 25.5t-41 6.5q-56 0 -83 -42t-46 -185l-38 -285h202l-18 -133h-201l-102 -782h-162z" />
    </font>
</defs>
</svg>
